website statistics
Infinite (2021) 초고화질 5.1 - 2.0 x264 Phun Psyz > 영화 > 대한민국 No.1 바다보아

팝업레이어 알림

 [구글검색] 구글에서 바다보아 검색 - 구글에서 토렌트를 검색하실 때에 검색어 뒤에 바다보아를 꼭 붙여서 검색하세요.     바다보아에서 광고중인 웹에 문제가 있다면 상단에 나와 있는 운영자 이메일로 연락 주십시오.     사용자님의 다운로드가 완료될 때까지 저희가 함께하겠습니다. 편안하고 즐거운 시간 되십시오.

웹하드 파일마루

Infinite (2021) 초고화질 5.1 - 2.0 x264 Phun Psyz
  • 파일 설명:     www.imdb.com/title/tt6654210/ A man discovers that his hallucinations are actually visions from past lives. Source: naisu (web) www.imdb.com/title/tt6654210/ A man discovers that his hallucinations are actually visions from past lives. Source: naisu (web) Format : MPEG-4 Format profile : Base Media / Version 2 Codec ID : mp42 (isom/iso2/avc1/mp41) File size : 1.90 GiB Duration : 1 h 46 min Overall bit rate mode : Variable Overall bit rate : 2 559 kb/s Writing application : HandBrake 1.3.3 2020061300 Video ID : 1 Format : AVC Format/Info : Advanced Video Codec Format profile : [email protected] Format settings : CABAC / 1 Ref Frames Format settings, CABAC : Yes Format settings, Reference : 1 frame Codec ID : avc1 Codec ID/Info : Advanced Video Coding Duration : 1 h 46 min Bit rate : 2 071 kb/s Width : 1 920 pixels Height : 800 pixels Display aspect ratio : 2.40:1 Frame rate mode : Constant Frame rate : 24.000 FPS Color space : YUV Chroma subsampling : 4:2:0 Bit depth : 8 bits Scan type : Progressive Bits/(Pixel*Frame) : 0.056 Stream size : 1.54 GiB (81%) Writing library : x264 core 157 r2935 545de2f Color primaries : BT.709 Transfer characteristics : BT.709 Matrix coefficients : BT.709 Audio #1 ID : 2 Format : AC-3 Format/Info : Audio Coding 3 Commercial name : Dolby Digital Codec ID : ac-3 Duration : 1 h 46 min Bit rate mode : Constant Bit rate : 320 kb/s Channel(s) : 6 channels Channel layout : L R C LFE Ls Rs Sampling rate : 48.0 kHz Frame rate : 31.250 FPS (1536 SPF) Compression mode : Lossy Stream size : 243 MiB (13%) Title : Surround Language : English Service kind : Complete Main Default : Yes Audio #2 ID : 3 Format : AAC LC Format/Info : Advanced Audio Codec Low Complexity Codec ID : mp4a-40-2 Duration : 1 h 46 min Bit rate mode : Constant Bit rate : 161 kb/s Channel(s) : 2 channels Channel layout : L R Sampling rate : 48.0 kHz Frame rate : 46.875 FPS (1024 SPF) Compression mode : Lossy Stream size : 122 MiB (6%) Title : Stereo Language : English Text Title : English Language : English Default : Yes Forced : No Infinite (2021) 초고화질 5.1 - 2.0 x264 Phun Psyz…
  • 인기 연관 검색어 :    
  • 관련 자료:    Infinite (2021) + Extras (초고화질 WEB-DL x265 HEVC 10bit EAC3 5 1 …    인피니티 INFINITE 2021 초고화질 KOR FHDRip H264 AAC-JTC
  • 같은 시각 자료:    Rock.Dog.2.Rock.Around.The.Park.2021.BRRip.XviD.AC3-EVO[TGx] ⭐    Rock.Dog.2.Rock.Around.The.Park.2021.초고화질.Bluray.DTS-HD.MA.5.1.X...
무료 다운로드 링크 직접 다운로드 링크 무제한 다운로드 링크 초고속 다운로드 링크

Infinite (2021) 초고화질 5.1 - 2.0 x264 Phun Psyz

www.imdb.com/title/tt6654210/

A man discovers that his hallucinations are actually visions from past lives.

Source: naisu (web)

www.imdb.com/title/tt6654210/

A man discovers that his hallucinations are actually visions from past lives.

Source: naisu (web)



Format : MPEG-4
Format profile : Base Media / Version 2
Codec ID : mp42 (isom/iso2/avc1/mp41)
File size : 1.90 GiB
Duration : 1 h 46 min
Overall bit rate mode : Variable
Overall bit rate : 2 559 kb/s
Writing application : HandBrake 1.3.3 2020061300

Video
ID : 1
Format : AVC
Format/Info : Advanced Video Codec
Format profile : [email protected]
Format settings : CABAC / 1 Ref Frames
Format settings, CABAC : Yes
Format settings, Reference : 1 frame
Codec ID : avc1
Codec ID/Info : Advanced Video Coding
Duration : 1 h 46 min
Bit rate : 2 071 kb/s
Width : 1 920 pixels
Height : 800 pixels
Display aspect ratio : 2.40:1
Frame rate mode : Constant
Frame rate : 24.000 FPS
Color space : YUV
Chroma subsampling : 4:2:0
Bit depth : 8 bits
Scan type : Progressive
Bits/(Pixel*Frame) : 0.056
Stream size : 1.54 GiB (81%)
Writing library : x264 core 157 r2935 545de2f
Color primaries : BT.709
Transfer characteristics : BT.709
Matrix coefficients : BT.709

Audio #1
ID : 2
Format : AC-3
Format/Info : Audio Coding 3
Commercial name : Dolby Digital
Codec ID : ac-3
Duration : 1 h 46 min
Bit rate mode : Constant
Bit rate : 320 kb/s
Channel(s) : 6 channels
Channel layout : L R C LFE Ls Rs
Sampling rate : 48.0 kHz
Frame rate : 31.250 FPS (1536 SPF)
Compression mode : Lossy
Stream size : 243 MiB (13%)
Title : Surround
Language : English
Service kind : Complete Main
Default : Yes

Audio #2
ID : 3
Format : AAC LC
Format/Info : Advanced Audio Codec Low Complexity
Codec ID : mp4a-40-2
Duration : 1 h 46 min
Bit rate mode : Constant
Bit rate : 161 kb/s
Channel(s) : 2 channels
Channel layout : L R
Sampling rate : 48.0 kHz
Frame rate : 46.875 FPS (1024 SPF)
Compression mode : Lossy
Stream size : 122 MiB (6%)
Title : Stereo
Language : English

Text
Title : English
Language : English
Default : Yes
Forced : No

Infinite (2021) 초고화질 5.1 - 2.0 x264 Phun Psyz
번역하기: 한국 한국어


<< 이 게시판에서 관련된 자료 목록 >>
 [구글검색] 구글에서 바다보아 검색 - 구글에서 토렌트를 검색하실 때에 검색어 뒤에 바다보아를 꼭 붙여서 검색하세요.     바다보아에서 광고중인 웹에 문제가 있다면 상단에 나와 있는 운영자 이메일로 연락 주십시오.     사용자님의 다운로드가 완료될 때까지 저희가 함께하겠습니다. 편안하고 즐거운 시간 되십시오.

웹하드 파일몽

  

  

IMFORMATION STORE

상단으로 가운데로 하단으로