website statistics
Infinite.2021.HDRip.XviD.B4ND1T69 > 영화 > 대한민국 No.1 바다보아

팝업레이어 알림

 [구글검색] 구글에서 바다보아 검색 - 구글에서 토렌트를 검색하실 때에 검색어 뒤에 바다보아를 꼭 붙여서 검색하세요.     바다보아에서 광고중인 웹에 문제가 있다면 상단에 나와 있는 운영자 이메일로 연락 주십시오.     사용자님의 다운로드가 완료될 때까지 저희가 함께하겠습니다. 편안하고 즐거운 시간 되십시오.

웹하드 파일마루

Infinite.2021.HDRip.XviD.B4ND1T69
  • 파일 설명:     Director: Antoine Fuqua Writers: Ian Shorr (screenplay), Todd Stein (screen story by) Stars: Mark Wahlberg, Chiwetel Ejiofor, Sophie Cookson Plot/Story: A man discovers that his hallucinations are actually visions from past lives. General Complete name : Infinite.2021.HDRip.XviD.B4ND1T69.avi Format : AVI Format/Info : Audio Video Interleave File size : 1.23 GiB Duration : 1 h 46 min Overall bit rate : 1 660 kb/s Subtitles : Yes...Included(HI) Video ID : 0 Format : MPEG-4 Visual Format profile : Advanced [email protected] Format settings, BVOP : 2 Format settings, QPel : No Format settings, GMC : No warppoints Format settings, Matrix : Default (H.263) Codec ID : XVID Codec ID/Hint : XviD Duration : 1 h 46 min Bit rate : 1 519 kb/s Width : 720 pixels Height : 304 pixels Display aspect ratio : 2.35:1 Frame rate : 24.000 FPS Color space : YUV Chroma subsampling : 4:2:0 Bit depth : 8 bits Scan type : Progressive Compression mode : Lossy Bits/(Pixel*Frame) : 0.289 Stream size : 1.13 GiB (92%) Writing library : XviD 64 Audio ID : 1 Format : MPEG Audio Format version : Version 1 Format profile : Layer 3 Codec ID : 55 Codec ID/Hint : MP3 Duration : 1 h 46 min Bit rate mode : Constant Bit rate : 128 kb/s Channel(s) : 2 channels Sampling rate : 48.0 kHz Compression mode : Lossy Stream size : 97.4 MiB (8%) Alignment : Aligned on interleaves Interleave, duration : 24 ms (0.58 video frame) Screenshots: Infinite.2021.HDRip.XviD.B4ND1T69 Director: Antoine Fuqua Writers: Ian Shorr (screenplay), Todd Stein (screen story by) Stars: Mark Wahlberg, Chiwetel Ejiofor, Sophie Cookson Plot/Story: A man discovers that his hallucinations are actually visions from past lives. General Complete name : Infinite.2021.HDRip.XviD.B4ND1T69.avi Format : AVI Format/Info : Audio Video Interleave File size : 1.23 GiB Duration : 1 h 46 min Overall bit rate : 1 660 kb/s Subtitles : Yes...Included(HI) Video ID : 0 Format : MPEG-4 Visual Format profile : Advanced [email protected] Format settings, BVOP : 2 Format settings, QPel : No Format settings, GMC : No warppoints Format settings, Matrix : Default (H.263) Codec ID : XVID Codec ID/Hint : XviD Duration : 1 h 46 min Bit rate : 1 519 kb/s Width : 720 pixels Height : 304 pixels Display aspect ratio : 2.35:1 Frame rate : 24.000 FPS Color space : YUV Chroma subsampling : 4:2:0 Bit depth : 8 bits Scan type : Progressive Compression mode : Lossy Bits/(Pixel*Frame) : 0.289 Stream size : 1.13 GiB (92%) Writing library : XviD 64 Audio ID : 1 Format : MPEG Audio Format version : Version 1 Format profile : Layer 3 Codec ID : 55 Codec ID/Hint : MP3 Duration : 1 h 46 min Bit rate mode : Constant Bit rate : 128 kb/s Channel(s) : 2 channels Sampling rate : 48.0 kHz Compression mode : Lossy Stream size : 97.4 MiB (8%) Alignment : Aligned on interleaves Interleave, duration : 24 ms (0.58 video frame) Screenshots: Please Seed For As Long As Possible Or At Least 1:1 Ratio...Thanks Enjoy Peeps Infinite.2021.HDRip.XviD.B4ND1T69…
  • 인기 연관 검색어 :    
  • 관련 자료:    Infinite (2021) + Extras (초고화질 WEB-DL x265 HEVC 10bit EAC3 5 1 …    인피니티 INFINITE 2021 초고화질 KOR FHDRip H264 AAC-JTC
  • 같은 시각 자료:    The Wedding Ring (2021) 고화질 WEB X264 Solar    2018 [오션스8] 화끈하게 훔친다 자체자막
무료 다운로드 링크 직접 다운로드 링크 무제한 다운로드 링크 초고속 다운로드 링크

Infinite.2021.HDRip.XviD.B4ND1T69

MV5BMTNjZjgxZGItMzg5NS00MzcyLWJhNjMtNzEwMjZhYjFmMDY3XkEyXkFqcGdeQXVyMTA1OTAyOTI@._V1_UX182_CR0,0,182,268_AL_.jpg


Director: Antoine Fuqua
Writers: Ian Shorr (screenplay), Todd Stein (screen story by)
Stars: Mark Wahlberg, Chiwetel Ejiofor, Sophie Cookson

Plot/Story:
A man discovers that his hallucinations are actually visions from past lives.

General
Complete name : Infinite.2021.HDRip.XviD.B4ND1T69.avi
Format : AVI
Format/Info : Audio Video Interleave
File size : 1.23 GiB
Duration : 1 h 46 min
Overall bit rate : 1 660 kb/s
Subtitles : Yes...Included(HI)

Video
ID : 0
Format : MPEG-4 Visual
Format profile : Advanced [email protected]
Format settings, BVOP : 2
Format settings, QPel : No
Format settings, GMC : No warppoints
Format settings, Matrix : Default (H.263)
Codec ID : XVID
Codec ID/Hint : XviD
Duration : 1 h 46 min
Bit rate : 1 519 kb/s
Width : 720 pixels
Height : 304 pixels
Display aspect ratio : 2.35:1
Frame rate : 24.000 FPS
Color space : YUV
Chroma subsampling : 4:2:0
Bit depth : 8 bits
Scan type : Progressive
Compression mode : Lossy
Bits/(Pixel*Frame) : 0.289
Stream size : 1.13 GiB (92%)
Writing library : XviD 64

Audio
ID : 1
Format : MPEG Audio
Format version : Version 1
Format profile : Layer 3
Codec ID : 55
Codec ID/Hint : MP3
Duration : 1 h 46 min
Bit rate mode : Constant
Bit rate : 128 kb/s
Channel(s) : 2 channels
Sampling rate : 48.0 kHz
Compression mode : Lossy
Stream size : 97.4 MiB (8%)
Alignment : Aligned on interleaves
Interleave, duration : 24 ms (0.58 video frame)

Screenshots:

infinite-1.png

infinite-2.png

infinite-3.png

infinite-4.png

infinite-5.png

infinite-6.png

infinite-7.png

infinite-8.png

Infinite.2021.HDRip.XviD.B4ND1T69

MV5BMTNjZjgxZGItMzg5NS00MzcyLWJhNjMtNzEwMjZhYjFmMDY3XkEyXkFqcGdeQXVyMTA1OTAyOTI@._V1_UX182_CR0,0,182,268_AL_.jpg


Director: Antoine Fuqua
Writers: Ian Shorr (screenplay), Todd Stein (screen story by)
Stars: Mark Wahlberg, Chiwetel Ejiofor, Sophie Cookson

Plot/Story:
A man discovers that his hallucinations are actually visions from past lives.

General
Complete name : Infinite.2021.HDRip.XviD.B4ND1T69.avi
Format : AVI
Format/Info : Audio Video Interleave
File size : 1.23 GiB
Duration : 1 h 46 min
Overall bit rate : 1 660 kb/s
Subtitles : Yes...Included(HI)

Video
ID : 0
Format : MPEG-4 Visual
Format profile : Advanced [email protected]
Format settings, BVOP : 2
Format settings, QPel : No
Format settings, GMC : No warppoints
Format settings, Matrix : Default (H.263)
Codec ID : XVID
Codec ID/Hint : XviD
Duration : 1 h 46 min
Bit rate : 1 519 kb/s
Width : 720 pixels
Height : 304 pixels
Display aspect ratio : 2.35:1
Frame rate : 24.000 FPS
Color space : YUV
Chroma subsampling : 4:2:0
Bit depth : 8 bits
Scan type : Progressive
Compression mode : Lossy
Bits/(Pixel*Frame) : 0.289
Stream size : 1.13 GiB (92%)
Writing library : XviD 64

Audio
ID : 1
Format : MPEG Audio
Format version : Version 1
Format profile : Layer 3
Codec ID : 55
Codec ID/Hint : MP3
Duration : 1 h 46 min
Bit rate mode : Constant
Bit rate : 128 kb/s
Channel(s) : 2 channels
Sampling rate : 48.0 kHz
Compression mode : Lossy
Stream size : 97.4 MiB (8%)
Alignment : Aligned on interleaves
Interleave, duration : 24 ms (0.58 video frame)

Screenshots:

infinite-1.png

infinite-2.png

infinite-3.png

infinite-4.png

infinite-5.png

infinite-6.png

infinite-7.png

infinite-8.png


Please Seed For As Long As Possible
Or At Least 1:1 Ratio...Thanks
Enjoy Peeps

Infinite.2021.HDRip.XviD.B4ND1T69
번역하기: 한국 한국어


<< 이 게시판에서 관련된 자료 목록 >>
 [구글검색] 구글에서 바다보아 검색 - 구글에서 토렌트를 검색하실 때에 검색어 뒤에 바다보아를 꼭 붙여서 검색하세요.     바다보아에서 광고중인 웹에 문제가 있다면 상단에 나와 있는 운영자 이메일로 연락 주십시오.     사용자님의 다운로드가 완료될 때까지 저희가 함께하겠습니다. 편안하고 즐거운 시간 되십시오.

웹하드 찐플

  

  

IMFORMATION STORE

상단으로 가운데로 하단으로