website statistics
Soul (2020) 초고화질 10bit Bluray x265 HEVC English DDP 5.1 ESubs ~ ... > 영화 > 대한민국 No.1 바다보아

팝업레이어 알림

 [구글검색] 구글에서 바다보아 검색 - 구글에서 토렌트를 검색하실 때에 검색어 뒤에 바다보아를 꼭 붙여서 검색하세요.     바다보아에서 광고중인 웹에 문제가 있다면 상단에 나와 있는 운영자 이메일로 연락 주십시오.     사용자님의 다운로드가 완료될 때까지 저희가 함께하겠습니다. 편안하고 즐거운 시간 되십시오.

웹하드 파일썬

  

  
Soul (2020) 초고화질 10bit Bluray x265 HEVC English DDP 5.1 ESubs ~ ...
  • 파일 설명:     Everybody has a soul. Joe Gardner is about to find his... Soul (2020) 초고화질 10bit Bluray x265 HEVC English DDP 5.1 ESubs ~ TombDoc Code:Format : Matroska Format version : Version 4 File size : 3.38 GiB Duration : 1 h 40 min Overall bit rate : 4 809 kb/s Video ID : 1 Format : HEVC Format/Info : High Efficiency Video Coding Format profile : Main [email protected]@Main Codec ID : V_MPEGH/ISO/HEVC Duration : 1 h 40 min Bit rate : 4 002 kb/s Width : 1 920 pixels Height : 804 pixels Display aspect ratio : 2.40:1 Frame rate mode : Constant Frame rate : 23.976 (24000/1001) FPS Color space : YUV Chroma subsampling : 4:2:0 Bit depth : 10 bits Bits/(Pixel*Frame) : 0.108 Stream size : 2.81 GiB (83%) Writing library : x265 3.5+9+14-6c69ed37d:[Windows][GCC 10.2.0][64 bit] 10bit Encoding settings : cpuid=1111039 / frame-threads=4 / numa-pools=24 / wpp / no-pmode / no-pme / no-psnr / no-ssim / log-level=2 / input-csp=1 / input-res=1920x804 / interlace=0 / total-frames=144645 / level-idc=0 / high-tier=1 / uhd-bd=0 / ref=5 / no-allow-non-conformance / no-repeat-headers / annexb / no-aud / no-hrd / info / hash=0 / no-temporal-layers / open-gop / min-keyint=23 / keyint=250 / gop-lookahead=0 / bframes=8 / b-adapt=2 / b-pyramid / bframe-bias=0 / rc-lookahead=100 / lookahead-slices=4 / scenecut=40 / hist-scenecut=0 / radl=0 / no-splice / no-intra-refresh / ctu=64 / min-cu-size=8 / rect / amp / max-tu-size=32 / tu-inter-depth=2 / tu-intra-depth=2 / limit-tu=1 / rdoq-level=2 / dynamic-rd=0.00 / ssim-rd / signhide / no-tskip / nr-intra=0 / nr-inter=0 / no-constrained-intra / strong-intra-smoothing / max-merge=5 / limit-refs=3 / limit-modes / me=3 / subme=6 / merange=57 / temporal-mvp / no-frame-dup / no-hme / weightp / no-weightb / no-analyze-src-pics / deblock=0:0 / sao / no-sao-non-deblock / rd=4 / selective-sao=4 / no-early-skip / rskip / no-fast-intra / no-tskip-fast / no-cu-lossless / no-b-intra / no-splitrd-skip / rdpenalty=0 / psy-rd=0.00 / psy-rdoq=2.00 / no-rd-refine / no-lossless / cbqpoffs=0 / crqpoffs=0 / rc=abr / bitrate=4000 / qcomp=0.60 / qpstep=4 / stats-write=0 / stats-read=2 / cplxblur=20.0 / qblur=0.5 / ipratio=1.40 / pbratio=1.30 / aq-mode=4 / aq-strength=1.00 / cutree / zone-count=0 / no-strict-cbr / qg-size=32 / rc-grain / qpmax=69 / qpmin=0 / no-const-vbv / sar=0 / overscan=0 / videoformat=5 / range=0 / colorprim=2 / transfer=2 / colormatrix=2 / chromaloc=0 / display-window=0 / cll=0,0 / min-luma=0 / max-luma=1023 / log2-max-poc-lsb=8 / vui-timing-info / vui-hrd-info / slices=1 / no-opt-qp-pps / no-opt-ref-list-length-pps / no-multi-pass-opt-rps / scenecut-bias=0.05 / hist-threshold=0.03 / no-opt-cu-delta-qp / aq-motion / no-hdr10 / no-hdr10-opt / no-dhdr10-opt / no-idr-recovery-sei / analysis-reuse-level=0 / analysis-save-reuse-level=0 / analysis-load-reuse-level=0 / scale-factor=0 / refine-intra=0 / refine-inter=0 / refine-mv=1 / refine-ctu-distortion=0 / no-limit-sao / ctu-info=0 / no-lowpass-dct / refine-analysis-type=0 / copy-pic=1 / max-ausize-factor=1.0 / no-dynamic-refine / no-single-sei / hevc-aq / no-svt / no-field / qp-adaptation-range=1.00 / scenecut-aware-qp=0conformance-window-offsets / right=0 / bottom=0 / decoder-max-rate=0 / no-vbv-live-multi-pass Default : Yes Forced : No Audio ID : 2 Format : E-AC-3 Format/Info : Enhanced AC-3 Commercial name : Dolby Digital Plus Codec ID : A_EAC3 Duration : 1 h 40 min Bit rate mode : Constant Bit rate : 768 kb/s Channel(s) : 6 channels Channel layout : L R C LFE Ls Rs Sampling rate : 48.0 kHz Frame rate : 31.250 FPS (1536 SPF) Compression mode : Lossy Stream size : 552 MiB (16%) Title : English DD+ 5.1 768Kbps ~ TombDoc Language : English Service kind : Complete Main Default : Yes Forced : Yes Text #1 ID : 3 Format : PGS Muxing mode : zlib Codec ID : S_HDMV/PGS Codec ID/Info : Picture based subtitle format used on BDs/HD-DVDs Duration : 1 h 40 min Bit rate : 51.9 kb/s Count of elements : 3716 Stream size : 37.3 MiB (1%) Title : Eng BD-PGS-SDH Language : English Default : Yes Forced : Yes Text #2 ID : 4 Format : PGS Muxing mode : zlib Codec ID : S_HDMV/PGS Codec ID/Info : Picture based subtitle format used on BDs/HD-DVDs Duration : 1 h 40 min Bit rate : 75.2 kb/s Count of elements : 3532 Stream size : 54.0 MiB (2%) Title : Commentary Language : English Default : No Forced : No Menu 00:00:00.000 : :Chapter 01 00:03:32.337 : :Chapter 02 00:04:57.923 : :Chapter 03 00:08:43.189 : :Chapter 04 00:09:18.892 : :Chapter 05 00:11:49.334 : :Chapter 06 00:12:29.457 : :Chapter 07 00:15:03.569 : :Chapter 08 00:17:12.031 : :Chapter 09 00:18:24.687 : :Chapter 10 00:19:53.984 : :Chapter 11 00:21:29.663 : :Chapter 12 00:26:00.058 : :Chapter 13 00:29:47.786 : :Chapter 14 00:36:07.916 : :Chapter 15 00:38:22.383 : :Chapter 16 00:39:53.307 : :Chapter 17 00:41:55.805 : :Chapter 18 00:43:43.621 : :Chapter 19 00:44:29.166 : :Chapter 20 00:46:06.263 : :Chapter 21 00:49:38.183 : :Chapter 22 00:50:40.537 : :Chapter 23 00:51:28.126 : :Chapter 24 00:55:31.328 : :Chapter 25 00:56:59.791 : :Chapter 26 00:58:34.094 : :Chapter 27 01:00:31.794 : :Chapter 28 01:04:48.551 : :Chapter 29 01:07:53.361 : :Chapter 30 01:09:15.484 : :Chapter 31 01:12:33.974 : :Chapter 32 01:15:32.361 : :Chapter 33 01:17:23.639 : :Chapter 34 01:21:15.453 : :Chapter 35 01:22:57.806 : :Chapter 36 01:26:43.323 : :Chapter 37 01:28:32.306 : :Chapter 38 01:30:13.574 : :Chapter 39 Code:Source: Soul 2020 초고화질 Remux AVC DTS-HD MA 7.1-playBD EnjOyY the Quality... Everybody has a soul. Joe Gardner is about to find his... Soul (2020) 초고화질 10bit Bluray x265 HEVC English DDP 5.1 ESubs ~ TombDoc Code:Format : Matroska Format version : Version 4 File size : 3.38 GiB Duration : 1 h 40 min Overall bit rate : 4 809 kb/s Video ID : 1 Format : HEVC Format/Info : High Efficiency Video Coding Format profile : Main [email protected]@Main Codec ID : V_MPEGH/ISO/HEVC Duration : 1 h 40 min Bit rate : 4 002 kb/s Width : 1 920 pixels Height : 804 pixels Display aspect ratio : 2.40:1 Frame rate mode : Constant Frame rate : 23.976 (24000/1001) FPS Color space : YUV Chroma subsampling : 4:2:0 Bit depth : 10 bits Bits/(Pixel*Frame) : 0.108 Stream size : 2.81 GiB (83%) Writing library : x265 3.5+9+14-6c69ed37d:[Windows][GCC 10.2.0][64 bit] 10bit Encoding settings : cpuid=1111039 / frame-threads=4 / numa-pools=24 / wpp / no-pmode / no-pme / no-psnr / no-ssim / log-level=2 / input-csp=1 / input-res=1920x804 / interlace=0 / total-frames=144645 / level-idc=0 / high-tier=1 / uhd-bd=0 / ref=5 / no-allow-non-conformance / no-repeat-headers / annexb / no-aud / no-hrd / info / hash=0 / no-temporal-layers / open-gop / min-keyint=23 / keyint=250 / gop-lookahead=0 / bframes=8 / b-adapt=2 / b-pyramid / bframe-bias=0 / rc-lookahead=100 / lookahead-slices=4 / scenecut=40 / hist-scenecut=0 / radl=0 / no-splice / no-intra-refresh / ctu=64 / min-cu-size=8 / rect / amp / max-tu-size=32 / tu-inter-depth=2 / tu-intra-depth=2 / limit-tu=1 / rdoq-level=2 / dynamic-rd=0.00 / ssim-rd / signhide / no-tskip / nr-intra=0 / nr-inter=0 / no-constrained-intra / strong-intra-smoothing / max-merge=5 / limit-refs=3 / limit-modes / me=3 / subme=6 / merange=57 / temporal-mvp / no-frame-dup / no-hme / weightp / no-weightb / no-analyze-src-pics / deblock=0:0 / sao / no-sao-non-deblock / rd=4 / selective-sao=4 / no-early-skip / rskip / no-fast-intra / no-tskip-fast / no-cu-lossless / no-b-intra / no-splitrd-skip / rdpenalty=0 / psy-rd=0.00 / psy-rdoq=2.00 / no-rd-refine / no-lossless / cbqpoffs=0 / crqpoffs=0 / rc=abr / bitrate=4000 / qcomp=0.60 / qpstep=4 / stats-write=0 / stats-read=2 / cplxblur=20.0 / qblur=0.5 / ipratio=1.40 / pbratio=1.30 / aq-mode=4 / aq-strength=1.00 / cutree / zone-count=0 / no-strict-cbr / qg-size=32 / rc-grain / qpmax=69 / qpmin=0 / no-const-vbv / sar=0 / overscan=0 / videoformat=5 / range=0 / colorprim=2 / transfer=2 / colormatrix=2 / chromaloc=0 / display-window=0 / cll=0,0 / min-luma=0 / max-luma=1023 / log2-max-poc-lsb=8 / vui-timing-info / vui-hrd-info / slices=1 / no-opt-qp-pps / no-opt-ref-list-length-pps / no-multi-pass-opt-rps / scenecut-bias=0.05 / hist-threshold=0.03 / no-opt-cu-delta-qp / aq-motion / no-hdr10 / no-hdr10-opt / no-dhdr10-opt / no-idr-recovery-sei / analysis-reuse-level=0 / analysis-save-reuse-level=0 / analysis-load-reuse-level=0 / scale-factor=0 / refine-intra=0 / refine-inter=0 / refine-mv=1 / refine-ctu-distortion=0 / no-limit-sao / ctu-info=0 / no-lowpass-dct / refine-analysis-type=0 / copy-pic=1 / max-ausize-factor=1.0 / no-dynamic-refine / no-single-sei / hevc-aq / no-svt / no-field / qp-adaptation-range=1.00 / scenecut-aware-qp=0conformance-window-offsets / right=0 / bottom=0 / decoder-max-rate=0 / no-vbv-live-multi-pass Default : Yes Forced : No Audio ID : 2 Format : E-AC-3 Format/Info : Enhanced AC-3 Commercial name : Dolby Digital Plus Codec ID : A_EAC3 Duration : 1 h 40 min Bit rate mode : Constant Bit rate : 768 kb/s Channel(s) : 6 channels Channel layout : L R C LFE Ls Rs Sampling rate : 48.0 kHz Frame rate : 31.250 FPS (1536 SPF) Compression mode : Lossy Stream size : 552 MiB (16%) Title : English DD+ 5.1 768Kbps ~ TombDoc Language : English Service kind : Complete Main Default : Yes Forced : Yes Text #1 ID : 3 Format : PGS Muxing mode : zlib Codec ID : S_HDMV/PGS Codec ID/Info : Picture based subtitle format used on BDs/HD-DVDs Duration : 1 h 40 min Bit rate : 51.9 kb/s Count of elements : 3716 Stream size : 37.3 MiB (1%) Title : Eng BD-PGS-SDH Language : English Default : Yes Forced : Yes Text #2 ID : 4 Format : PGS Muxing mode : zlib Codec ID : S_HDMV/PGS Codec ID/Info : Picture based subtitle format used on BDs/HD-DVDs Duration : 1 h 40 min Bit rate : 75.2 kb/s Count of elements : 3532 Stream size : 54.0 MiB (2%) Title : Commentary Language : English Default : No Forced : No Menu 00:00:00.000 : :Chapter 01 00:03:32.337 : :Chapter 02 00:04:57.923 : :Chapter 03 00:08:43.189 : :Chapter 04 00:09:18.892 : :Chapter 05 00:11:49.334 : :Chapter 06 00:12:29.457 : :Chapter 07 00:15:03.569 : :Chapter 08 00:17:12.031 : :Chapter 09 00:18:24.687 : :Chapter 10 00:19:53.984 : :Chapter 11 00:21:29.663 : :Chapter 12 00:26:00.058 : :Chapter 13 00:29:47.786 : :Chapter 14 00:36:07.916 : :Chapter 15 00:38:22.383 : :Chapter 16 00:39:53.307 : :Chapter 17 00:41:55.805 : :Chapter 18 00:43:43.621 : :Chapter 19 00:44:29.166 : :Chapter 20 00:46:06.263 : :Chapter 21 00:49:38.183 : :Chapter 22 00:50:40.537 : :Chapter 23 00:51:28.126 : :Chapter 24 00:55:31.328 : :Chapter 25 00:56:59.791 : :Chapter 26 00:58:34.094 : :Chapter 27 01:00:31.794 : :Chapter 28 01:04:48.551 : :Chapter 29 01:07:53.361 : :Chapter 30 01:09:15.484 : :Chapter 31 01:12:33.974 : :Chapter 32 01:15:32.361 : :Chapter 33 01:17:23.639 : :Chapter 34 01:21:15.453 : :Chapter 35 01:22:57.806 : :Chapter 36 01:26:43.323 : :Chapter 37 01:28:32.306 : :Chapter 38 01:30:13.574 : :Chapter 39 Code:Source: Soul 2020 초고화질 Remux AVC DTS-HD MA 7.1-playBD EnjOyY the Quality... Soul (2020) 초고화질 10bit Bluray x265 HEVC English DDP 5.1 ESubs ~ ...…
  • 인기 연관 검색어 :    Soul    
  • 관련 자료:    96 Souls    한글 직접 인코딩 사랑의 동반자 Heart and Souls 1993 WEBRip 초고화질 x265 10bit E…
  • 같은 시각 자료:    The Crater Lake Monster (1977) RiffTrax dual audio 고화질.10bit.Blu...    Unknown (2011) Senza Identità - BluRay 초고화질.H264 Ita Eng AC3 5.1...
무료 다운로드 링크 직접 다운로드 링크 무제한 다운로드 링크 초고속 다운로드 링크

Soul (2020) 초고화질 10bit Bluray x265 HEVC English DDP 5.1 ESubs ~ ...

285475_front.jpg



Everybody has a soul. Joe Gardner is about to find his...


soul-5f7476ea21153.png


Soul (2020) 초고화질 10bit Bluray x265 HEVC English DDP 5.1 ESubs ~ TombDoc


Code:

Format : Matroska
Format version : Version 4
File size : 3.38 GiB
Duration : 1 h 40 min
Overall bit rate : 4 809 kb/s

Video
ID : 1
Format : HEVC
Format/Info : High Efficiency Video Coding
Format profile : Main [email protected]@Main
Codec ID : V_MPEGH/ISO/HEVC
Duration : 1 h 40 min
Bit rate : 4 002 kb/s
Width : 1 920 pixels
Height : 804 pixels
Display aspect ratio : 2.40:1
Frame rate mode : Constant
Frame rate : 23.976 (24000/1001) FPS
Color space : YUV
Chroma subsampling : 4:2:0
Bit depth : 10 bits
Bits/(Pixel*Frame) : 0.108
Stream size : 2.81 GiB (83%)
Writing library : x265 3.5+9+14-6c69ed37d:[Windows][GCC 10.2.0][64 bit] 10bit
Encoding settings : cpuid=1111039 / frame-threads=4 / numa-pools=24 / wpp / no-pmode / no-pme / no-psnr / no-ssim / log-level=2 / input-csp=1 / input-res=1920x804 / interlace=0 / total-frames=144645 / level-idc=0 / high-tier=1 / uhd-bd=0 / ref=5 / no-allow-non-conformance / no-repeat-headers / annexb / no-aud / no-hrd / info / hash=0 / no-temporal-layers / open-gop / min-keyint=23 / keyint=250 / gop-lookahead=0 / bframes=8 / b-adapt=2 / b-pyramid / bframe-bias=0 / rc-lookahead=100 / lookahead-slices=4 / scenecut=40 / hist-scenecut=0 / radl=0 / no-splice / no-intra-refresh / ctu=64 / min-cu-size=8 / rect / amp / max-tu-size=32 / tu-inter-depth=2 / tu-intra-depth=2 / limit-tu=1 / rdoq-level=2 / dynamic-rd=0.00 / ssim-rd / signhide / no-tskip / nr-intra=0 / nr-inter=0 / no-constrained-intra / strong-intra-smoothing / max-merge=5 / limit-refs=3 / limit-modes / me=3 / subme=6 / merange=57 / temporal-mvp / no-frame-dup / no-hme / weightp / no-weightb / no-analyze-src-pics / deblock=0:0 / sao / no-sao-non-deblock / rd=4 / selective-sao=4 / no-early-skip / rskip / no-fast-intra / no-tskip-fast / no-cu-lossless / no-b-intra / no-splitrd-skip / rdpenalty=0 / psy-rd=0.00 / psy-rdoq=2.00 / no-rd-refine / no-lossless / cbqpoffs=0 / crqpoffs=0 / rc=abr / bitrate=4000 / qcomp=0.60 / qpstep=4 / stats-write=0 / stats-read=2 / cplxblur=20.0 / qblur=0.5 / ipratio=1.40 / pbratio=1.30 / aq-mode=4 / aq-strength=1.00 / cutree / zone-count=0 / no-strict-cbr / qg-size=32 / rc-grain / qpmax=69 / qpmin=0 / no-const-vbv / sar=0 / overscan=0 / videoformat=5 / range=0 / colorprim=2 / transfer=2 / colormatrix=2 / chromaloc=0 / display-window=0 / cll=0,0 / min-luma=0 / max-luma=1023 / log2-max-poc-lsb=8 / vui-timing-info / vui-hrd-info / slices=1 / no-opt-qp-pps / no-opt-ref-list-length-pps / no-multi-pass-opt-rps / scenecut-bias=0.05 / hist-threshold=0.03 / no-opt-cu-delta-qp / aq-motion / no-hdr10 / no-hdr10-opt / no-dhdr10-opt / no-idr-recovery-sei / analysis-reuse-level=0 / analysis-save-reuse-level=0 / analysis-load-reuse-level=0 / scale-factor=0 / refine-intra=0 / refine-inter=0 / refine-mv=1 / refine-ctu-distortion=0 / no-limit-sao / ctu-info=0 / no-lowpass-dct / refine-analysis-type=0 / copy-pic=1 / max-ausize-factor=1.0 / no-dynamic-refine / no-single-sei / hevc-aq / no-svt / no-field / qp-adaptation-range=1.00 / scenecut-aware-qp=0conformance-window-offsets / right=0 / bottom=0 / decoder-max-rate=0 / no-vbv-live-multi-pass
Default : Yes
Forced : No

Audio
ID : 2
Format : E-AC-3
Format/Info : Enhanced AC-3
Commercial name : Dolby Digital Plus
Codec ID : A_EAC3
Duration : 1 h 40 min
Bit rate mode : Constant
Bit rate : 768 kb/s
Channel(s) : 6 channels
Channel layout : L R C LFE Ls Rs
Sampling rate : 48.0 kHz
Frame rate : 31.250 FPS (1536 SPF)
Compression mode : Lossy
Stream size : 552 MiB (16%)
Title : English DD+ 5.1 768Kbps ~ TombDoc
Language : English
Service kind : Complete Main
Default : Yes
Forced : Yes

Text #1
ID : 3
Format : PGS
Muxing mode : zlib
Codec ID : S_HDMV/PGS
Codec ID/Info : Picture based subtitle format used on BDs/HD-DVDs
Duration : 1 h 40 min
Bit rate : 51.9 kb/s
Count of elements : 3716
Stream size : 37.3 MiB (1%)
Title : Eng BD-PGS-SDH
Language : English
Default : Yes
Forced : Yes

Text #2
ID : 4
Format : PGS
Muxing mode : zlib
Codec ID : S_HDMV/PGS
Codec ID/Info : Picture based subtitle format used on BDs/HD-DVDs
Duration : 1 h 40 min
Bit rate : 75.2 kb/s
Count of elements : 3532
Stream size : 54.0 MiB (2%)
Title : Commentary
Language : English
Default : No
Forced : No

Menu
00:00:00.000 : :Chapter 01
00:03:32.337 : :Chapter 02
00:04:57.923 : :Chapter 03
00:08:43.189 : :Chapter 04
00:09:18.892 : :Chapter 05
00:11:49.334 : :Chapter 06
00:12:29.457 : :Chapter 07
00:15:03.569 : :Chapter 08
00:17:12.031 : :Chapter 09
00:18:24.687 : :Chapter 10
00:19:53.984 : :Chapter 11
00:21:29.663 : :Chapter 12
00:26:00.058 : :Chapter 13
00:29:47.786 : :Chapter 14
00:36:07.916 : :Chapter 15
00:38:22.383 : :Chapter 16
00:39:53.307 : :Chapter 17
00:41:55.805 : :Chapter 18
00:43:43.621 : :Chapter 19
00:44:29.166 : :Chapter 20
00:46:06.263 : :Chapter 21
00:49:38.183 : :Chapter 22
00:50:40.537 : :Chapter 23
00:51:28.126 : :Chapter 24
00:55:31.328 : :Chapter 25
00:56:59.791 : :Chapter 26
00:58:34.094 : :Chapter 27
01:00:31.794 : :Chapter 28
01:04:48.551 : :Chapter 29
01:07:53.361 : :Chapter 30
01:09:15.484 : :Chapter 31
01:12:33.974 : :Chapter 32
01:15:32.361 : :Chapter 33
01:17:23.639 : :Chapter 34
01:21:15.453 : :Chapter 35
01:22:57.806 : :Chapter 36
01:26:43.323 : :Chapter 37
01:28:32.306 : :Chapter 38
01:30:13.574 : :Chapter 39


vlcsnap-2021-05-10-12h32m05s641.png
vlcsnap-2021-05-10-12h32m29s939.png
vlcsnap-2021-05-10-12h33m20s359.png
vlcsnap-2021-05-10-12h34m12s066.png
vlcsnap-2021-05-10-12h34m54s420.png
vlcsnap-2021-05-10-12h35m03s325.png
vlcsnap-2021-05-10-12h35m20s541.png
vlcsnap-2021-05-10-12h35m41s884.png


Code:

Source: Soul 2020 초고화질 Remux AVC DTS-HD MA 7.1-playBD
EnjOyY the Quality...


RniIMYcn_o.gif

soul-5fe273535f7e8.jpg

285475_front.jpg



Everybody has a soul. Joe Gardner is about to find his...


soul-5f7476ea21153.png


Soul (2020) 초고화질 10bit Bluray x265 HEVC English DDP 5.1 ESubs ~ TombDoc


Code:

Format : Matroska
Format version : Version 4
File size : 3.38 GiB
Duration : 1 h 40 min
Overall bit rate : 4 809 kb/s

Video
ID : 1
Format : HEVC
Format/Info : High Efficiency Video Coding
Format profile : Main [email protected]@Main
Codec ID : V_MPEGH/ISO/HEVC
Duration : 1 h 40 min
Bit rate : 4 002 kb/s
Width : 1 920 pixels
Height : 804 pixels
Display aspect ratio : 2.40:1
Frame rate mode : Constant
Frame rate : 23.976 (24000/1001) FPS
Color space : YUV
Chroma subsampling : 4:2:0
Bit depth : 10 bits
Bits/(Pixel*Frame) : 0.108
Stream size : 2.81 GiB (83%)
Writing library : x265 3.5+9+14-6c69ed37d:[Windows][GCC 10.2.0][64 bit] 10bit
Encoding settings : cpuid=1111039 / frame-threads=4 / numa-pools=24 / wpp / no-pmode / no-pme / no-psnr / no-ssim / log-level=2 / input-csp=1 / input-res=1920x804 / interlace=0 / total-frames=144645 / level-idc=0 / high-tier=1 / uhd-bd=0 / ref=5 / no-allow-non-conformance / no-repeat-headers / annexb / no-aud / no-hrd / info / hash=0 / no-temporal-layers / open-gop / min-keyint=23 / keyint=250 / gop-lookahead=0 / bframes=8 / b-adapt=2 / b-pyramid / bframe-bias=0 / rc-lookahead=100 / lookahead-slices=4 / scenecut=40 / hist-scenecut=0 / radl=0 / no-splice / no-intra-refresh / ctu=64 / min-cu-size=8 / rect / amp / max-tu-size=32 / tu-inter-depth=2 / tu-intra-depth=2 / limit-tu=1 / rdoq-level=2 / dynamic-rd=0.00 / ssim-rd / signhide / no-tskip / nr-intra=0 / nr-inter=0 / no-constrained-intra / strong-intra-smoothing / max-merge=5 / limit-refs=3 / limit-modes / me=3 / subme=6 / merange=57 / temporal-mvp / no-frame-dup / no-hme / weightp / no-weightb / no-analyze-src-pics / deblock=0:0 / sao / no-sao-non-deblock / rd=4 / selective-sao=4 / no-early-skip / rskip / no-fast-intra / no-tskip-fast / no-cu-lossless / no-b-intra / no-splitrd-skip / rdpenalty=0 / psy-rd=0.00 / psy-rdoq=2.00 / no-rd-refine / no-lossless / cbqpoffs=0 / crqpoffs=0 / rc=abr / bitrate=4000 / qcomp=0.60 / qpstep=4 / stats-write=0 / stats-read=2 / cplxblur=20.0 / qblur=0.5 / ipratio=1.40 / pbratio=1.30 / aq-mode=4 / aq-strength=1.00 / cutree / zone-count=0 / no-strict-cbr / qg-size=32 / rc-grain / qpmax=69 / qpmin=0 / no-const-vbv / sar=0 / overscan=0 / videoformat=5 / range=0 / colorprim=2 / transfer=2 / colormatrix=2 / chromaloc=0 / display-window=0 / cll=0,0 / min-luma=0 / max-luma=1023 / log2-max-poc-lsb=8 / vui-timing-info / vui-hrd-info / slices=1 / no-opt-qp-pps / no-opt-ref-list-length-pps / no-multi-pass-opt-rps / scenecut-bias=0.05 / hist-threshold=0.03 / no-opt-cu-delta-qp / aq-motion / no-hdr10 / no-hdr10-opt / no-dhdr10-opt / no-idr-recovery-sei / analysis-reuse-level=0 / analysis-save-reuse-level=0 / analysis-load-reuse-level=0 / scale-factor=0 / refine-intra=0 / refine-inter=0 / refine-mv=1 / refine-ctu-distortion=0 / no-limit-sao / ctu-info=0 / no-lowpass-dct / refine-analysis-type=0 / copy-pic=1 / max-ausize-factor=1.0 / no-dynamic-refine / no-single-sei / hevc-aq / no-svt / no-field / qp-adaptation-range=1.00 / scenecut-aware-qp=0conformance-window-offsets / right=0 / bottom=0 / decoder-max-rate=0 / no-vbv-live-multi-pass
Default : Yes
Forced : No

Audio
ID : 2
Format : E-AC-3
Format/Info : Enhanced AC-3
Commercial name : Dolby Digital Plus
Codec ID : A_EAC3
Duration : 1 h 40 min
Bit rate mode : Constant
Bit rate : 768 kb/s
Channel(s) : 6 channels
Channel layout : L R C LFE Ls Rs
Sampling rate : 48.0 kHz
Frame rate : 31.250 FPS (1536 SPF)
Compression mode : Lossy
Stream size : 552 MiB (16%)
Title : English DD+ 5.1 768Kbps ~ TombDoc
Language : English
Service kind : Complete Main
Default : Yes
Forced : Yes

Text #1
ID : 3
Format : PGS
Muxing mode : zlib
Codec ID : S_HDMV/PGS
Codec ID/Info : Picture based subtitle format used on BDs/HD-DVDs
Duration : 1 h 40 min
Bit rate : 51.9 kb/s
Count of elements : 3716
Stream size : 37.3 MiB (1%)
Title : Eng BD-PGS-SDH
Language : English
Default : Yes
Forced : Yes

Text #2
ID : 4
Format : PGS
Muxing mode : zlib
Codec ID : S_HDMV/PGS
Codec ID/Info : Picture based subtitle format used on BDs/HD-DVDs
Duration : 1 h 40 min
Bit rate : 75.2 kb/s
Count of elements : 3532
Stream size : 54.0 MiB (2%)
Title : Commentary
Language : English
Default : No
Forced : No

Menu
00:00:00.000 : :Chapter 01
00:03:32.337 : :Chapter 02
00:04:57.923 : :Chapter 03
00:08:43.189 : :Chapter 04
00:09:18.892 : :Chapter 05
00:11:49.334 : :Chapter 06
00:12:29.457 : :Chapter 07
00:15:03.569 : :Chapter 08
00:17:12.031 : :Chapter 09
00:18:24.687 : :Chapter 10
00:19:53.984 : :Chapter 11
00:21:29.663 : :Chapter 12
00:26:00.058 : :Chapter 13
00:29:47.786 : :Chapter 14
00:36:07.916 : :Chapter 15
00:38:22.383 : :Chapter 16
00:39:53.307 : :Chapter 17
00:41:55.805 : :Chapter 18
00:43:43.621 : :Chapter 19
00:44:29.166 : :Chapter 20
00:46:06.263 : :Chapter 21
00:49:38.183 : :Chapter 22
00:50:40.537 : :Chapter 23
00:51:28.126 : :Chapter 24
00:55:31.328 : :Chapter 25
00:56:59.791 : :Chapter 26
00:58:34.094 : :Chapter 27
01:00:31.794 : :Chapter 28
01:04:48.551 : :Chapter 29
01:07:53.361 : :Chapter 30
01:09:15.484 : :Chapter 31
01:12:33.974 : :Chapter 32
01:15:32.361 : :Chapter 33
01:17:23.639 : :Chapter 34
01:21:15.453 : :Chapter 35
01:22:57.806 : :Chapter 36
01:26:43.323 : :Chapter 37
01:28:32.306 : :Chapter 38
01:30:13.574 : :Chapter 39


vlcsnap-2021-05-10-12h32m05s641.png
vlcsnap-2021-05-10-12h32m29s939.png
vlcsnap-2021-05-10-12h33m20s359.png
vlcsnap-2021-05-10-12h34m12s066.png
vlcsnap-2021-05-10-12h34m54s420.png
vlcsnap-2021-05-10-12h35m03s325.png
vlcsnap-2021-05-10-12h35m20s541.png
vlcsnap-2021-05-10-12h35m41s884.png


Code:

Source: Soul 2020 초고화질 Remux AVC DTS-HD MA 7.1-playBD
EnjOyY the Quality...


RniIMYcn_o.gif

soul-5fe273535f7e8.jpg


Soul (2020) 초고화질 10bit Bluray x265 HEVC English DDP 5.1 ESubs ~ ...
번역하기: 한국 한국어


<< 이 게시판에서 관련된 자료 목록 >>
 [구글검색] 구글에서 바다보아 검색 - 구글에서 토렌트를 검색하실 때에 검색어 뒤에 바다보아를 꼭 붙여서 검색하세요.     바다보아에서 광고중인 웹에 문제가 있다면 상단에 나와 있는 운영자 이메일로 연락 주십시오.     사용자님의 다운로드가 완료될 때까지 저희가 함께하겠습니다. 편안하고 즐거운 시간 되십시오.

웹하드 파일몽

  

  

IMFORMATION STORE

상단으로 가운데로 하단으로