website statistics
300 (2006) (2160p x265 HEVC 10bit HDR BluRay Atmos TrueHD 7.1) [P... > 영화 > 대한민국 No.1 바다보아

팝업레이어 알림

 [구글검색] 구글에서 바다보아 검색 - 구글에서 토렌트를 검색하실 때에 검색어 뒤에 바다보아를 꼭 붙여서 검색하세요.     바다보아에서 광고중인 웹에 문제가 있다면 상단에 나와 있는 운영자 이메일로 연락 주십시오.     사용자님의 다운로드가 완료될 때까지 저희가 함께하겠습니다. 편안하고 즐거운 시간 되십시오.

웹하드 파일마루

  

  
300 (2006) (2160p x265 HEVC 10bit HDR BluRay Atmos TrueHD 7.1) [P...
  • 파일 설명:     Im all about this song right now, fucking hate I found out about him after he died. Im getting too fucked up, yeah Im too fucked up. Everyday is a party and dont let anyone tell you different. General Format : Matroska Format version : Version 4 File size : 25.6 GiB Duration : 1 h 56 min Overall bit rate mode : Variable Overall bit rate : 31.4 Mb/s Movie name : 300 (2007) Encoded date : UTC 2021-05-06 22:05:52 Writing application : mkvmerge v53.0.0 (Fools Gold) 64-bit Writing library : libebml v1.4.1 + libmatroska v1.6.2 Video ID : 1 Format : HEVC Format/Info : High Efficiency Video Coding Format profile : Main [email protected]@Main HDR format : SMPTE ST 2086, HDR10 compatible Codec ID : V_MPEGH/ISO/HEVC Duration : 1 h 56 min Bit rate : 27.2 Mb/s Width : 3 840 pixels Height : 1 600 pixels Display aspect ratio : 2.40:1 Frame rate mode : Constant Frame rate : 23.976 (24000/1001) FPS Color space : YUV Chroma subsampling : 4:2:0 (Type 2) Bit depth : 10 bits Bits/(Pixel*Frame) : 0.185 Stream size : 22.2 GiB (87%) Writing library : x265 3.5_RC1+2+23-bd060601e:[Windows][GCC 10.2.0][64 bit] 10bit Encoding settings : cpuid=1111039 / frame-threads=4 / numa-pools=24 / wpp / no-pmode / no-pme / no-psnr / no-ssim / log-level=2 / input-csp=1 / input-res=3840x1600 / interlace=0 / total-frames=167789 / level-idc=0 / high-tier=1 / uhd-bd=0 / ref=5 / no-allow-non-conformance / repeat-headers / annexb / aud / no-hrd / info / hash=0 / no-temporal-layers / open-gop / min-keyint=23 / keyint=250 / gop-lookahead=0 / bframes=8 / b-adapt=2 / b-pyramid / bframe-bias=0 / rc-lookahead=40 / lookahead-slices=1 / scenecut=40 / hist-scenecut=0 / radl=0 / no-splice / no-intra-refresh / ctu=64 / min-cu-size=8 / rect / amp / max-tu-size=32 / tu-inter-depth=3 / tu-intra-depth=3 / limit-tu=4 / rdoq-level=2 / dynamic-rd=0.00 / no-ssim-rd / signhide / no-tskip / nr-intra=0 / nr-inter=0 / no-constrained-intra / strong-intra-smoothing / max-merge=4 / limit-refs=1 / limit-modes / me=3 / subme=4 / merange=57 / temporal-mvp / no-frame-dup / no-hme / weightp / weightb / no-analyze-src-pics / deblock=0:0 / sao / no-sao-non-deblock / rd=6 / selective-sao=4 / no-early-skip / rskip / no-fast-intra / no-tskip-fast / no-cu-lossless / b-intra / no-splitrd-skip / rdpenalty=0 / psy-rd=2.00 / psy-rdoq=1.00 / no-rd-refine / no-lossless / cbqpoffs=0 / crqpoffs=0 / rc=crf / crf=22.0 / qcomp=0.60 / qpstep=4 / stats-write=0 / stats-read=0 / ipratio=1.40 / pbratio=1.30 / aq-mode=3 / aq-strength=1.00 / cutree / zone-count=0 / no-strict-cbr / qg-size=32 / no-rc-grain / qpmax=69 / qpmin=0 / no-const-vbv / sar=0 / overscan=0 / videoformat=5 / range=0 / colorprim=9 / transfer=16 / colormatrix=9 / chromaloc=1 / chromaloc-top=2 / chromaloc-bottom=2 / display-window=0 / master-display=G(13250,34500)B(7500,3000)R(34000,16000)WP(15635,16450)L(10000000,1) / cll=439,106 / min-luma=0 / max-luma=1023 / log2-max-poc-lsb=8 / vui-timing-info / vui-hrd-info / slices=1 / no-opt-qp-pps / no-opt-ref-list-length-pps / no-multi-pass-opt-rps / scenecut-bias=0.05 / hist-threshold=0.03 / no-opt-cu-delta-qp / no-aq-motion / hdr10 / no-hdr10-opt / no-dhdr10-opt / no-idr-recovery-sei / analysis-reuse-level=0 / analysis-save-reuse-level=0 / analysis-load-reuse-level=0 / scale-factor=0 / refine-intra=0 / refine-inter=0 / refine-mv=1 / refine-ctu-distortion=0 / no-limit-sao / ctu-info=0 / no-lowpass-dct / refine-analysis-type=0 / copy-pic=1 / max-ausize-factor=1.0 / no-dynamic-refine / no-single-sei / no-hevc-aq / no-svt / no-field / qp-adaptation-range=1.00 / scenecut-aware-qp=0conformance-window-offsets / right=0 / bottom=0 / decoder-max-rate=0 / no-vbv-live-multi-pass Default : Yes Forced : No Color range : Limited Color primaries : BT.2020 Transfer characteristics : PQ Matrix coefficients : BT.2020 non-constant Mastering display color primaries : Display P3 Mastering display luminance : min: 0.0001 cd/m2, max: 1000 cd/m2 Maximum Content Light Level : 439 cd/m2 Maximum Frame-Average Light Level : 106 cd/m2 Audio #1 ID : 2 Format : MLP FBA 16-ch Format/Info : Meridian Lossless Packing FBA with 16-channel presentation Commercial name : Dolby TrueHD with Dolby Atmos Codec ID : A_TRUEHD Duration : 1 h 56 min Bit rate mode : Variable Bit rate : 3 343 kb/s Maximum bit rate : 5 451 kb/s Channel(s) : 8 channels Channel layout : L R C LFE Ls Rs Lb Rb Sampling rate : 48.0 kHz Frame rate : 1 200.000 FPS (40 SPF) Compression mode : Lossless Stream size : 2.72 GiB (11%) Language : English Default : Yes Forced : No Number of dynamic objects : 11 Bed channel count : 1 channel Bed channel configuration : LFE Audio #2 ID : 3 Format : AC-3 Format/Info : Audio Coding 3 Commercial name : Dolby Digital Format settings : Dolby Surround EX Codec ID : A_AC3 Duration : 1 h 56 min Bit rate mode : Constant Bit rate : 448 kb/s Channel(s) : 6 channels Channel layout : L R C LFE Ls Rs Sampling rate : 48.0 kHz Frame rate : 31.250 FPS (1536 SPF) Compression mode : Lossy Stream size : 374 MiB (1%) Title : Compaibility Track Language : English Service kind : Complete Main Default : No Forced : No Audio #3 ID : 4 Format : AC-3 Format/Info : Audio Coding 3 Commercial name : Dolby Digital Format settings : Dolby Surround Codec ID : A_AC3 Duration : 1 h 56 min Bit rate mode : Constant Bit rate : 192 kb/s Channel(s) : 2 channels Channel layout : L R Sampling rate : 48.0 kHz Frame rate : 31.250 FPS (1536 SPF) Compression mode : Lossy Stream size : 160 MiB (1%) Title : Commentary by Director Zack Snyder, Writer Kurt Jo Language : English Service kind : Complete Main Default : No Forced : No Text #1 ID : 5 Format : PGS Muxing mode : zlib Codec ID : S_HDMV/PGS Codec ID/Info : Picture based subtitle format used on BDs/HD-DVDs Duration : 1 h 47 min Bit rate : 19.2 kb/s Count of elements : 1958 Stream size : 14.8 MiB (0%) Title : Japanese Language : Japanese Default : No Forced : No Text #2 ID : 6 Format : PGS Muxing mode : zlib Codec ID : S_HDMV/PGS Codec ID/Info : Picture based subtitle format used on BDs/HD-DVDs Duration : 1 h 48 min Bit rate : 24.5 kb/s Count of elements : 2106 Stream size : 19.0 MiB (0%) Title : English (SDH) Language : English Default : No Forced : No Text #3 ID : 7 Format : PGS Muxing mode : zlib Codec ID : S_HDMV/PGS Codec ID/Info : Picture based subtitle format used on BDs/HD-DVDs Duration : 1 h 55 min Bit rate : 20.3 kb/s Count of elements : 2108 Stream size : 16.8 MiB (0%) Title : French Language : French Default : No Forced : No Text #4 ID : 8 Format : PGS Muxing mode : zlib Codec ID : S_HDMV/PGS Codec ID/Info : Picture based subtitle format used on BDs/HD-DVDs Duration : 1 h 47 min Bit rate : 28.7 kb/s Count of elements : 2142 Stream size : 22.2 MiB (0%) Title : German (SDH) Language : German Default : No Forced : No Text #5 ID : 9 Format : PGS Muxing mode : zlib Codec ID : S_HDMV/PGS Codec ID/Info : Picture based subtitle format used on BDs/HD-DVDs Duration : 1 h 48 min Bit rate : 25.8 kb/s Count of elements : 2116 Stream size : 20.0 MiB (0%) Title : Italian (SDH) Language : Italian Default : No Forced : No Text #6 ID : 10 Format : PGS Muxing mode : zlib Codec ID : S_HDMV/PGS Codec ID/Info : Picture based subtitle format used on BDs/HD-DVDs Duration : 1 h 55 min Bit rate : 20.3 kb/s Count of elements : 1802 Stream size : 16.8 MiB (0%) Title : Dutch Language : Dutch Default : No Forced : No Text #7 ID : 11 Format : PGS Muxing mode : zlib Codec ID : S_HDMV/PGS Codec ID/Info : Picture based subtitle format used on BDs/HD-DVDs Duration : 1 h 49 min Bit rate : 20.8 kb/s Count of elements : 1932 Stream size : 16.3 MiB (0%) Title : Chinese (Traditional) Language : Chinese Default : No Forced : No Text #8 ID : 12 Format : PGS Muxing mode : zlib Codec ID : S_HDMV/PGS Codec ID/Info : Picture based subtitle format used on BDs/HD-DVDs Duration : 1 h 49 min Bit rate : 16.5 kb/s Count of elements : 1894 Stream size : 12.9 MiB (0%) Title : Korean Language : Korean Default : No Forced : No Text #9 ID : 13 Format : PGS Muxing mode : zlib Codec ID : S_HDMV/PGS Codec ID/Info : Picture based subtitle format used on BDs/HD-DVDs Duration : 1 h 47 min Bit rate : 24.3 kb/s Count of elements : 1938 Stream size : 18.7 MiB (0%) Title : Spanish (Latin American) Language : Spanish Default : No Forced : No Text #10 ID : 14 Format : PGS Muxing mode : zlib Codec ID : S_HDMV/PGS Codec ID/Info : Picture based subtitle format used on BDs/HD-DVDs Duration : 1 h 55 min Bit rate : 20.0 kb/s Count of elements : 1498 Stream size : 16.5 MiB (0%) Title : Danish Language : Danish Default : No Forced : No Text #11 ID : 15 Format : PGS Muxing mode : zlib Codec ID : S_HDMV/PGS Codec ID/Info : Picture based subtitle format used on BDs/HD-DVDs Duration : 1 h 55 min Bit rate : 20.6 kb/s Count of elements : 1496 Stream size : 17.0 MiB (0%) Title : Finnish Language : Finnish Default : No Forced : No Text #12 ID : 16 Format : PGS Muxing mode : zlib Codec ID : S_HDMV/PGS Codec ID/Info : Picture based subtitle format used on BDs/HD-DVDs Duration : 1 h 55 min Bit rate : 19.7 kb/s Count of elements : 1504 Stream size : 16.2 MiB (0%) Title : Norwegian Language : Norwegian Bokmal Default : No Forced : No Text #13 ID : 17 Format : PGS Muxing mode : zlib Codec ID : S_HDMV/PGS Codec ID/Info : Picture based subtitle format used on BDs/HD-DVDs Duration : 1 h 55 min Bit rate : 20.2 kb/s Count of elements : 1610 Stream size : 16.7 MiB (0%) Title : Swedish Language : Swedish Default : No Forced : No Text #14 ID : 18 Format : PGS Muxing mode : zlib Codec ID : S_HDMV/PGS Codec ID/Info : Picture based subtitle format used on BDs/HD-DVDs Duration : 1 h 47 min Bit rate : 22.6 kb/s Count of elements : 1908 Stream size : 17.4 MiB (0%) Title : Thai Language : Thai Default : No Forced : No Text #15 ID : 19 Format : PGS Muxing mode : zlib Codec ID : S_HDMV/PGS Codec ID/Info : Picture based subtitle format used on BDs/HD-DVDs Duration : 1 h 49 min Bit rate : 32.9 kb/s Count of elements : 2586 Stream size : 25.7 MiB (0%) Title : Japanese (Commentary) Language : Japanese Default : No Forced : No Menu 00:00:00.000 : en:Spartan Education 00:05:16.608 : en:Messenger From Persia 00:10:22.956 : en:Spartas Reply 00:13:16.421 : en:The Ephors 00:16:51.844 : en:The Oracle 00:19:44.016 : en:What Should A Free Man Do? 00:22:27.972 : en:With or On Your Shield 00:27:03.288 : en:More Soldiers Than You 00:29:15.921 : en:Hunters of Mens Souls 00:33:17.495 : en:Glorious Rain 00:35:06.438 : en:Fraction of the Monster 00:37:49.100 : en:Wall of the Dead 00:40:45.943 : en:Ephialtes Request 00:44:09.981 : en:Hot Gates Battle 00:49:16.871 : en:Today No Spartan Dies 00:52:45.996 : en:Make Theron Your Ally 00:55:33.247 : en:Meeting Xerxes 01:01:40.530 : en:Immortals Put to the Test 01:05:20.416 : en:Uber Immortals Fall 01:08:42.618 : en:Numbers COunt for Nothing 01:12:42.858 : en:Blood-Drunk 01:15:50.045 : en:Betrayers Bargain 01:18:38.047 : en:Queens Bargain 01:22:20.602 : en:Prepare for Glory 01:26:43.198 : en:Tell Them Our Story 01:29:11.179 : en:Trickster in True Form 01:33:58.883 : en:Victory in Surrender 01:38:54.262 : en:Fallen Heroes 01:43:25.866 : en:Go Tell the Spartans 01:49:03.203 : en:End Credits Source: Remux 52.2 GB 300 (2006) (2160p x265 HEVC 10bit HDR BluRay Atmos TrueHD 7.1) [P...…
  • 인기 연관 검색어 :    
  • 관련 자료:    3 완벽자막대작 떠따 ㅡ 손 오 공 부 활 ㅡ 300년만에 돌아왔네!    한글 300 2006 초고화질 CEE BluRay VC 1 TrueHD 5 1 FGT - 바다보아
  • 같은 시각 자료:    Psycho Goreman (2020) (초고화질 BluRay x265 HEVC 10bit AAC 5.1 Korac...    니암니슨.실화.대박 전쟁액션 게릴라의 진수.무저건봐야 대작명작.
무료 다운로드 링크 직접 다운로드 링크 무제한 다운로드 링크 초고속 다운로드 링크

300 (2006) (2160p x265 HEVC 10bit HDR BluRay Atmos TrueHD 7.1) [P...

300-2006-mkv-snapshot-00-23-18-2021-05-06-19-47-26.png


300-2006-mkv-snapshot-00-45-06-2021-05-06-19-52-36.png


300-2006-mkv-snapshot-00-57-49-2021-05-06-19-52-51.png


300-2006-mkv-snapshot-01-38-15-2021-05-06-19-49-59.png

Im all about this song right now, fucking hate I found out about him after he died. Im getting too fucked up, yeah Im too fucked up. Everyday is a party and dont let anyone tell you different.




300-2006-mkv-snapshot-00-23-18-2021-05-06-19-47-26.png


300-2006-mkv-snapshot-00-45-06-2021-05-06-19-52-36.png


300-2006-mkv-snapshot-00-57-49-2021-05-06-19-52-51.png


300-2006-mkv-snapshot-01-38-15-2021-05-06-19-49-59.png


General
Format : Matroska
Format version : Version 4
File size : 25.6 GiB
Duration : 1 h 56 min
Overall bit rate mode : Variable
Overall bit rate : 31.4 Mb/s
Movie name : 300 (2007)
Encoded date : UTC 2021-05-06 22:05:52
Writing application : mkvmerge v53.0.0 (Fools Gold) 64-bit
Writing library : libebml v1.4.1 + libmatroska v1.6.2

Video
ID : 1
Format : HEVC
Format/Info : High Efficiency Video Coding
Format profile : Main [email protected]@Main
HDR format : SMPTE ST 2086, HDR10 compatible
Codec ID : V_MPEGH/ISO/HEVC
Duration : 1 h 56 min
Bit rate : 27.2 Mb/s
Width : 3 840 pixels
Height : 1 600 pixels
Display aspect ratio : 2.40:1
Frame rate mode : Constant
Frame rate : 23.976 (24000/1001) FPS
Color space : YUV
Chroma subsampling : 4:2:0 (Type 2)
Bit depth : 10 bits
Bits/(Pixel*Frame) : 0.185
Stream size : 22.2 GiB (87%)
Writing library : x265 3.5_RC1+2+23-bd060601e:[Windows][GCC 10.2.0][64 bit] 10bit
Encoding settings : cpuid=1111039 / frame-threads=4 / numa-pools=24 / wpp / no-pmode / no-pme / no-psnr / no-ssim / log-level=2 / input-csp=1 / input-res=3840x1600 / interlace=0 / total-frames=167789 / level-idc=0 / high-tier=1 / uhd-bd=0 / ref=5 / no-allow-non-conformance / repeat-headers / annexb / aud / no-hrd / info / hash=0 / no-temporal-layers / open-gop / min-keyint=23 / keyint=250 / gop-lookahead=0 / bframes=8 / b-adapt=2 / b-pyramid / bframe-bias=0 / rc-lookahead=40 / lookahead-slices=1 / scenecut=40 / hist-scenecut=0 / radl=0 / no-splice / no-intra-refresh / ctu=64 / min-cu-size=8 / rect / amp / max-tu-size=32 / tu-inter-depth=3 / tu-intra-depth=3 / limit-tu=4 / rdoq-level=2 / dynamic-rd=0.00 / no-ssim-rd / signhide / no-tskip / nr-intra=0 / nr-inter=0 / no-constrained-intra / strong-intra-smoothing / max-merge=4 / limit-refs=1 / limit-modes / me=3 / subme=4 / merange=57 / temporal-mvp / no-frame-dup / no-hme / weightp / weightb / no-analyze-src-pics / deblock=0:0 / sao / no-sao-non-deblock / rd=6 / selective-sao=4 / no-early-skip / rskip / no-fast-intra / no-tskip-fast / no-cu-lossless / b-intra / no-splitrd-skip / rdpenalty=0 / psy-rd=2.00 / psy-rdoq=1.00 / no-rd-refine / no-lossless / cbqpoffs=0 / crqpoffs=0 / rc=crf / crf=22.0 / qcomp=0.60 / qpstep=4 / stats-write=0 / stats-read=0 / ipratio=1.40 / pbratio=1.30 / aq-mode=3 / aq-strength=1.00 / cutree / zone-count=0 / no-strict-cbr / qg-size=32 / no-rc-grain / qpmax=69 / qpmin=0 / no-const-vbv / sar=0 / overscan=0 / videoformat=5 / range=0 / colorprim=9 / transfer=16 / colormatrix=9 / chromaloc=1 / chromaloc-top=2 / chromaloc-bottom=2 / display-window=0 / master-display=G(13250,34500)B(7500,3000)R(34000,16000)WP(15635,16450)L(10000000,1) / cll=439,106 / min-luma=0 / max-luma=1023 / log2-max-poc-lsb=8 / vui-timing-info / vui-hrd-info / slices=1 / no-opt-qp-pps / no-opt-ref-list-length-pps / no-multi-pass-opt-rps / scenecut-bias=0.05 / hist-threshold=0.03 / no-opt-cu-delta-qp / no-aq-motion / hdr10 / no-hdr10-opt / no-dhdr10-opt / no-idr-recovery-sei / analysis-reuse-level=0 / analysis-save-reuse-level=0 / analysis-load-reuse-level=0 / scale-factor=0 / refine-intra=0 / refine-inter=0 / refine-mv=1 / refine-ctu-distortion=0 / no-limit-sao / ctu-info=0 / no-lowpass-dct / refine-analysis-type=0 / copy-pic=1 / max-ausize-factor=1.0 / no-dynamic-refine / no-single-sei / no-hevc-aq / no-svt / no-field / qp-adaptation-range=1.00 / scenecut-aware-qp=0conformance-window-offsets / right=0 / bottom=0 / decoder-max-rate=0 / no-vbv-live-multi-pass
Default : Yes
Forced : No
Color range : Limited
Color primaries : BT.2020
Transfer characteristics : PQ
Matrix coefficients : BT.2020 non-constant
Mastering display color primaries : Display P3
Mastering display luminance : min: 0.0001 cd/m2, max: 1000 cd/m2
Maximum Content Light Level : 439 cd/m2
Maximum Frame-Average Light Level : 106 cd/m2

Audio #1
ID : 2
Format : MLP FBA 16-ch
Format/Info : Meridian Lossless Packing FBA with 16-channel presentation
Commercial name : Dolby TrueHD with Dolby Atmos
Codec ID : A_TRUEHD
Duration : 1 h 56 min
Bit rate mode : Variable
Bit rate : 3 343 kb/s
Maximum bit rate : 5 451 kb/s
Channel(s) : 8 channels
Channel layout : L R C LFE Ls Rs Lb Rb
Sampling rate : 48.0 kHz
Frame rate : 1 200.000 FPS (40 SPF)
Compression mode : Lossless
Stream size : 2.72 GiB (11%)
Language : English
Default : Yes
Forced : No
Number of dynamic objects : 11
Bed channel count : 1 channel
Bed channel configuration : LFE

Audio #2
ID : 3
Format : AC-3
Format/Info : Audio Coding 3
Commercial name : Dolby Digital
Format settings : Dolby Surround EX
Codec ID : A_AC3
Duration : 1 h 56 min
Bit rate mode : Constant
Bit rate : 448 kb/s
Channel(s) : 6 channels
Channel layout : L R C LFE Ls Rs
Sampling rate : 48.0 kHz
Frame rate : 31.250 FPS (1536 SPF)
Compression mode : Lossy
Stream size : 374 MiB (1%)
Title : Compaibility Track
Language : English
Service kind : Complete Main
Default : No
Forced : No

Audio #3
ID : 4
Format : AC-3
Format/Info : Audio Coding 3
Commercial name : Dolby Digital
Format settings : Dolby Surround
Codec ID : A_AC3
Duration : 1 h 56 min
Bit rate mode : Constant
Bit rate : 192 kb/s
Channel(s) : 2 channels
Channel layout : L R
Sampling rate : 48.0 kHz
Frame rate : 31.250 FPS (1536 SPF)
Compression mode : Lossy
Stream size : 160 MiB (1%)
Title : Commentary by Director Zack Snyder, Writer Kurt Jo
Language : English
Service kind : Complete Main
Default : No
Forced : No

Text #1
ID : 5
Format : PGS
Muxing mode : zlib
Codec ID : S_HDMV/PGS
Codec ID/Info : Picture based subtitle format used on BDs/HD-DVDs
Duration : 1 h 47 min
Bit rate : 19.2 kb/s
Count of elements : 1958
Stream size : 14.8 MiB (0%)
Title : Japanese
Language : Japanese
Default : No
Forced : No

Text #2
ID : 6
Format : PGS
Muxing mode : zlib
Codec ID : S_HDMV/PGS
Codec ID/Info : Picture based subtitle format used on BDs/HD-DVDs
Duration : 1 h 48 min
Bit rate : 24.5 kb/s
Count of elements : 2106
Stream size : 19.0 MiB (0%)
Title : English (SDH)
Language : English
Default : No
Forced : No

Text #3
ID : 7
Format : PGS
Muxing mode : zlib
Codec ID : S_HDMV/PGS
Codec ID/Info : Picture based subtitle format used on BDs/HD-DVDs
Duration : 1 h 55 min
Bit rate : 20.3 kb/s
Count of elements : 2108
Stream size : 16.8 MiB (0%)
Title : French
Language : French
Default : No
Forced : No

Text #4
ID : 8
Format : PGS
Muxing mode : zlib
Codec ID : S_HDMV/PGS
Codec ID/Info : Picture based subtitle format used on BDs/HD-DVDs
Duration : 1 h 47 min
Bit rate : 28.7 kb/s
Count of elements : 2142
Stream size : 22.2 MiB (0%)
Title : German (SDH)
Language : German
Default : No
Forced : No

Text #5
ID : 9
Format : PGS
Muxing mode : zlib
Codec ID : S_HDMV/PGS
Codec ID/Info : Picture based subtitle format used on BDs/HD-DVDs
Duration : 1 h 48 min
Bit rate : 25.8 kb/s
Count of elements : 2116
Stream size : 20.0 MiB (0%)
Title : Italian (SDH)
Language : Italian
Default : No
Forced : No

Text #6
ID : 10
Format : PGS
Muxing mode : zlib
Codec ID : S_HDMV/PGS
Codec ID/Info : Picture based subtitle format used on BDs/HD-DVDs
Duration : 1 h 55 min
Bit rate : 20.3 kb/s
Count of elements : 1802
Stream size : 16.8 MiB (0%)
Title : Dutch
Language : Dutch
Default : No
Forced : No

Text #7
ID : 11
Format : PGS
Muxing mode : zlib
Codec ID : S_HDMV/PGS
Codec ID/Info : Picture based subtitle format used on BDs/HD-DVDs
Duration : 1 h 49 min
Bit rate : 20.8 kb/s
Count of elements : 1932
Stream size : 16.3 MiB (0%)
Title : Chinese (Traditional)
Language : Chinese
Default : No
Forced : No

Text #8
ID : 12
Format : PGS
Muxing mode : zlib
Codec ID : S_HDMV/PGS
Codec ID/Info : Picture based subtitle format used on BDs/HD-DVDs
Duration : 1 h 49 min
Bit rate : 16.5 kb/s
Count of elements : 1894
Stream size : 12.9 MiB (0%)
Title : Korean
Language : Korean
Default : No
Forced : No

Text #9
ID : 13
Format : PGS
Muxing mode : zlib
Codec ID : S_HDMV/PGS
Codec ID/Info : Picture based subtitle format used on BDs/HD-DVDs
Duration : 1 h 47 min
Bit rate : 24.3 kb/s
Count of elements : 1938
Stream size : 18.7 MiB (0%)
Title : Spanish (Latin American)
Language : Spanish
Default : No
Forced : No

Text #10
ID : 14
Format : PGS
Muxing mode : zlib
Codec ID : S_HDMV/PGS
Codec ID/Info : Picture based subtitle format used on BDs/HD-DVDs
Duration : 1 h 55 min
Bit rate : 20.0 kb/s
Count of elements : 1498
Stream size : 16.5 MiB (0%)
Title : Danish
Language : Danish
Default : No
Forced : No

Text #11
ID : 15
Format : PGS
Muxing mode : zlib
Codec ID : S_HDMV/PGS
Codec ID/Info : Picture based subtitle format used on BDs/HD-DVDs
Duration : 1 h 55 min
Bit rate : 20.6 kb/s
Count of elements : 1496
Stream size : 17.0 MiB (0%)
Title : Finnish
Language : Finnish
Default : No
Forced : No

Text #12
ID : 16
Format : PGS
Muxing mode : zlib
Codec ID : S_HDMV/PGS
Codec ID/Info : Picture based subtitle format used on BDs/HD-DVDs
Duration : 1 h 55 min
Bit rate : 19.7 kb/s
Count of elements : 1504
Stream size : 16.2 MiB (0%)
Title : Norwegian
Language : Norwegian Bokmal
Default : No
Forced : No

Text #13
ID : 17
Format : PGS
Muxing mode : zlib
Codec ID : S_HDMV/PGS
Codec ID/Info : Picture based subtitle format used on BDs/HD-DVDs
Duration : 1 h 55 min
Bit rate : 20.2 kb/s
Count of elements : 1610
Stream size : 16.7 MiB (0%)
Title : Swedish
Language : Swedish
Default : No
Forced : No

Text #14
ID : 18
Format : PGS
Muxing mode : zlib
Codec ID : S_HDMV/PGS
Codec ID/Info : Picture based subtitle format used on BDs/HD-DVDs
Duration : 1 h 47 min
Bit rate : 22.6 kb/s
Count of elements : 1908
Stream size : 17.4 MiB (0%)
Title : Thai
Language : Thai
Default : No
Forced : No

Text #15
ID : 19
Format : PGS
Muxing mode : zlib
Codec ID : S_HDMV/PGS
Codec ID/Info : Picture based subtitle format used on BDs/HD-DVDs
Duration : 1 h 49 min
Bit rate : 32.9 kb/s
Count of elements : 2586
Stream size : 25.7 MiB (0%)
Title : Japanese (Commentary)
Language : Japanese
Default : No
Forced : No

Menu
00:00:00.000 : en:Spartan Education
00:05:16.608 : en:Messenger From Persia
00:10:22.956 : en:Spartas Reply
00:13:16.421 : en:The Ephors
00:16:51.844 : en:The Oracle
00:19:44.016 : en:What Should A Free Man Do?
00:22:27.972 : en:With or On Your Shield
00:27:03.288 : en:More Soldiers Than You
00:29:15.921 : en:Hunters of Mens Souls
00:33:17.495 : en:Glorious Rain
00:35:06.438 : en:Fraction of the Monster
00:37:49.100 : en:Wall of the Dead
00:40:45.943 : en:Ephialtes Request
00:44:09.981 : en:Hot Gates Battle
00:49:16.871 : en:Today No Spartan Dies
00:52:45.996 : en:Make Theron Your Ally
00:55:33.247 : en:Meeting Xerxes
01:01:40.530 : en:Immortals Put to the Test
01:05:20.416 : en:Uber Immortals Fall
01:08:42.618 : en:Numbers COunt for Nothing
01:12:42.858 : en:Blood-Drunk
01:15:50.045 : en:Betrayers Bargain
01:18:38.047 : en:Queens Bargain
01:22:20.602 : en:Prepare for Glory
01:26:43.198 : en:Tell Them Our Story
01:29:11.179 : en:Trickster in True Form
01:33:58.883 : en:Victory in Surrender
01:38:54.262 : en:Fallen Heroes
01:43:25.866 : en:Go Tell the Spartans
01:49:03.203 : en:End Credits

Source:

Remux 52.2 GB

300 (2006) (2160p x265 HEVC 10bit HDR BluRay Atmos TrueHD 7.1) [P...
번역하기: 한국 한국어


<< 이 게시판에서 관련된 자료 목록 >>
 [구글검색] 구글에서 바다보아 검색 - 구글에서 토렌트를 검색하실 때에 검색어 뒤에 바다보아를 꼭 붙여서 검색하세요.     바다보아에서 광고중인 웹에 문제가 있다면 상단에 나와 있는 운영자 이메일로 연락 주십시오.     사용자님의 다운로드가 완료될 때까지 저희가 함께하겠습니다. 편안하고 즐거운 시간 되십시오.

웹하드 찐플

  

  

IMFORMATION STORE

상단으로 가운데로 하단으로