website statistics
The.Current.War - Edison.L.Uomo.Che.Illumino.Il.Mondo.2017.iTA.EN... > 영화 > 대한민국 No.1 바다보아

팝업레이어 알림

 [구글검색] 구글에서 바다보아 검색 - 구글에서 토렌트를 검색하실 때에 검색어 뒤에 바다보아를 꼭 붙여서 검색하세요.     바다보아에서 광고중인 웹에 문제가 있다면 상단에 나와 있는 운영자 이메일로 연락 주십시오.     사용자님의 다운로드가 완료될 때까지 저희가 함께하겠습니다. 편안하고 즐거운 시간 되십시오.

웹하드 찐플

  

  
The.Current.War - Edison.L.Uomo.Che.Illumino.Il.Mondo.2017.iTA.EN...
  • 파일 설명:     Edison - LUomo Che Illuminò Il Mondo Titolo originale: The Current War Genere: Biografico, Drammatico Anno: 2017 Regia: Alfonso Gomez-Rejon Attori: Benedict Cumberbatch, Katherine Waterston, Tom Holland, Nicholas Hoult, Michael Shannon, Tuppence Middleton, Matthew Macfadyen, Tom Bell, Ekow Quartey, Tom Sweet Paese: USA Durata: 105 min Distribuzione: Unesclusiva per lItalia LEONE FILM GROUP - distribuito da 01 Distribution Sceneggiatura: Michael Mitnick Montaggio: David Trachtenberg Musiche: Volker Bertelmann, Dustin OHalloran Produzione: Bazelevs Production, Film Rites, Fourth Floor Productions Edison - Luomo che Illuminò il Mondo è un film biografico del 2017 diretto da Alfonso Gomez-Rejon, con Benedict Cumberbatch, Micheal Shannon e Katherine Waterston. Protagonista di questa storia è il geniale ed ambizioso inventore Thomas Alva Edison (Benedict Cumberbatch), che cambiò il mondo di fine 800 con la realizzazione della lampadina elettrica. Il successo dellinnovativa invenzione fece sì che Edison aprisse la sua prima centrale elettrica a New York, diventando così un imprenditore di fama mondiale, con il progetto di illuminare tutte le grandi metropoli. Il piano mostra però le sue lacune, dovute allutilizzo della corrente elettrica continua, incapace di coprire grosse distanze; quando George Westinghouse (Michael Shannon), uomo daffari in possesso dei brevetti della corrente alternata, si propose ad Edison per collaborare e risolvere le imperfezioni, questi rifiutò, convinto di potercela fare da solo e dubbioso sulla sicurezza del metodo presentato dallimprenditore, capace sì di aumentare la tensione e la conseguente copertura di grandi distanze, ma anche pericoloso poiché potenzialmente letale in caso di contatto involontario e conseguente folgorazione. Si scatenò così una vera "guerra delle correnti" tra i due impresari, che iniziarono a competere per gli appalti di illuminazione delle grandi città americane, cercando di influenzare le scelte governative e lopinione pubblica. Con Edison iniziò a collaborare anche Nikola Tesla (Nicolas Hoult), il visionario inventore, fisico ed ingegnere elettrico, che in breve tempo abbandonò la società per incomprensioni economiche, e finì, dopo un periodo in disgrazia, per essere assunto da Westington. Con la morte della moglie, Edison però conobbe una svolta negativa, arrivando ad investire tutte le sue energie per screditare i metodi del rivale, senza farsi scrupoli sulla scorrettezza delle sue azioni, accecato solo dallambizione e dal desiderio di prevalere. Iniziò anche a collaborare segretamente con il governo al progetto della sedia elettrica, che nonostante egli affermasse essere un metodo sicuro ed indolore, si rivelò imperfetto nellesecuzione delluxoricida William Kemmler, il primo criminale giustiziato con la nuova invenzione, che però morì solo dopo ben tre scariche e indicibili sofferenze. La cattiva pubblicità che derivò dallavvenimento provocò una perdita di consenso nellopinione pubblica e lestromissione dal consiglio di amministrazione della sua società; Edison ebbe una finale resa dei conti con il suo antagonista in occasione della gara di appalto per lilluminazione della Fiera di Chicago del 1893, che tuttavia non gli impedì di concentrarsi anche su unaltra grandissima invenzione, il kinetoscopio, precursore del proiettore cinematografico, pronto a rivoluzionare ancora una volta il mondo. Edison - LUomo Che Illuminò Il Mondo Titolo originale: The Current War Genere: Biografico, Drammatico Anno: 2017 Regia: Alfonso Gomez-Rejon Attori: Benedict Cumberbatch, Katherine Waterston, Tom Holland, Nicholas Hoult, Michael Shannon, Tuppence Middleton, Matthew Macfadyen, Tom Bell, Ekow Quartey, Tom Sweet Paese: USA Durata: 105 min Distribuzione: Unesclusiva per lItalia LEONE FILM GROUP - distribuito da 01 Distribution Sceneggiatura: Michael Mitnick Montaggio: David Trachtenberg Musiche: Volker Bertelmann, Dustin OHalloran Produzione: Bazelevs Production, Film Rites, Fourth Floor Productions Edison - Luomo che Illuminò il Mondo è un film biografico del 2017 diretto da Alfonso Gomez-Rejon, con Benedict Cumberbatch, Micheal Shannon e Katherine Waterston. Protagonista di questa storia è il geniale ed ambizioso inventore Thomas Alva Edison (Benedict Cumberbatch), che cambiò il mondo di fine 800 con la realizzazione della lampadina elettrica. Il successo dellinnovativa invenzione fece sì che Edison aprisse la sua prima centrale elettrica a New York, diventando così un imprenditore di fama mondiale, con il progetto di illuminare tutte le grandi metropoli. Il piano mostra però le sue lacune, dovute allutilizzo della corrente elettrica continua, incapace di coprire grosse distanze; quando George Westinghouse (Michael Shannon), uomo daffari in possesso dei brevetti della corrente alternata, si propose ad Edison per collaborare e risolvere le imperfezioni, questi rifiutò, convinto di potercela fare da solo e dubbioso sulla sicurezza del metodo presentato dallimprenditore, capace sì di aumentare la tensione e la conseguente copertura di grandi distanze, ma anche pericoloso poiché potenzialmente letale in caso di contatto involontario e conseguente folgorazione. Si scatenò così una vera "guerra delle correnti" tra i due impresari, che iniziarono a competere per gli appalti di illuminazione delle grandi città americane, cercando di influenzare le scelte governative e lopinione pubblica. Con Edison iniziò a collaborare anche Nikola Tesla (Nicolas Hoult), il visionario inventore, fisico ed ingegnere elettrico, che in breve tempo abbandonò la società per incomprensioni economiche, e finì, dopo un periodo in disgrazia, per essere assunto da Westington. Con la morte della moglie, Edison però conobbe una svolta negativa, arrivando ad investire tutte le sue energie per screditare i metodi del rivale, senza farsi scrupoli sulla scorrettezza delle sue azioni, accecato solo dallambizione e dal desiderio di prevalere. Iniziò anche a collaborare segretamente con il governo al progetto della sedia elettrica, che nonostante egli affermasse essere un metodo sicuro ed indolore, si rivelò imperfetto nellesecuzione delluxoricida William Kemmler, il primo criminale giustiziato con la nuova invenzione, che però morì solo dopo ben tre scariche e indicibili sofferenze. La cattiva pubblicità che derivò dallavvenimento provocò una perdita di consenso nellopinione pubblica e lestromissione dal consiglio di amministrazione della sua società; Edison ebbe una finale resa dei conti con il suo antagonista in occasione della gara di appalto per lilluminazione della Fiera di Chicago del 1893, che tuttavia non gli impedì di concentrarsi anche su unaltra grandissima invenzione, il kinetoscopio, precursore del proiettore cinematografico, pronto a rivoluzionare ancora una volta il mondo. General Unique ID : 208604046656962058775934235546311610604 (0x9CEFAD9141DA3DA083FF04B4C46E50EC) Complete name : Edison.L.Uomo.Che.Illumino.Il.Mondo.2017.iTA.ENG.AC3.SUB.iTA.ENG.BluRay.초고화질.x264.jeddak-MIRCrew.mkv Format : Matroska Format version : Version 2 File size : 2.45 GiB Duration : 1 h 48 min Overall bit rate : 3 230 kb/s Movie name : Edison.L.Uomo.Che.Illumino.Il.Mondo.2017.iTA.ENG.AC3.SUB.iTA.ENG.BluRay.초고화질.x264.jeddak-MIRCrew Encoded date : UTC 2021-04-06 10:03:15 Writing application : mkvmerge v5.6.0 (Kenya Kane) built on May 27 2012 16:44:04 Writing library : libebml v1.2.3 + libmatroska v1.3.0 / Lavf58.29.100 Video ID : 1 Format : AVC Format/Info : Advanced Video Codec Format profile : [email protected] Format settings : CABAC / 4 Ref Frames Format settings, CABAC : Yes Format settings, Reference : 4 frames Codec ID : V_MPEG4/ISO/AVC Duration : 1 h 48 min Bit rate : 2 270 kb/s Nominal bit rate : 2 400 kb/s Width : 1 920 pixels Height : 800 pixels Display aspect ratio : 2.40:1 Frame rate mode : Constant Frame rate : 24.000 FPS Color space : YUV Chroma subsampling : 4:2:0 Bit depth : 8 bits Scan type : Progressive Bits/(Pixel*Frame) : 0.062 Stream size : 1.72 GiB (70%) Title : ...::: jeddak MIRCrew :::... Writing library : x264 core 148 Encoding settings : cabac=1 / ref=3 / deblock=1:-1:-1 / analyse=0x3:0x113 / me=hex / subme=7 / psy=1 / psy_rd=1.00:0.15 / mixed_ref=1 / me_range=16 / chroma_me=1 / trellis=1 / 8x8dct=1 / cqm=0 / deadzone=21,11 / fast_pskip=1 / chroma_qp_offset=-3 / threads=6 / lookahead_threads=1 / sliced_threads=0 / nr=0 / decimate=1 / interlaced=0 / bluray_compat=0 / constrained_intra=0 / bframes=3 / b_pyramid=2 / b_adapt=1 / b_bias=0 / direct=1 / weightb=1 / open_gop=0 / weightp=2 / keyint=240 / keyint_min=24 / scenecut=40 / intra_refresh=0 / rc_lookahead=40 / rc=abr / mbtree=1 / bitrate=2400 / ratetol=1.0 / qcomp=0.60 / qpmin=0 / qpmax=69 / qpstep=4 / vbv_maxrate=62500 / vbv_bufsize=78125 / nal_hrd=none / filler=0 / ip_ratio=1.40 / aq=1:1.00 Default : Yes Forced : No Color range : Limited Color primaries : BT.709 Transfer characteristics : BT.709 Matrix coefficients : BT.709 Audio #1 ID : 2 Format : AC-3 Format/Info : Audio Coding 3 Commercial name : Dolby Digital Codec ID : A_AC3 Duration : 1 h 48 min Bit rate mode : Constant Bit rate : 448 kb/s Channel(s) : 6 channels Channel layout : L R C LFE Ls Rs Sampling rate : 48.0 kHz Frame rate : 31.250 FPS (1536 SPF) Compression mode : Lossy Delay relative to video : -5 ms Stream size : 348 MiB (14%) Title : iTA AC3 5.1 Language : Italian Service kind : Complete Main Default : Yes Forced : No Audio #2 ID : 3 Format : AC-3 Format/Info : Audio Coding 3 Commercial name : Dolby Digital Codec ID : A_AC3 Duration : 1 h 48 min Bit rate mode : Constant Bit rate : 448 kb/s Channel(s) : 6 channels Channel layout : L R C LFE Ls Rs Sampling rate : 48.0 kHz Frame rate : 31.250 FPS (1536 SPF) Compression mode : Lossy Delay relative to video : -5 ms Stream size : 348 MiB (14%) Title : ENG AC3 5.1 Language : English Service kind : Complete Main Default : No Forced : No Text #1 ID : 4 Format : ASS Codec ID : S_TEXT/ASS Codec ID/Info : Advanced Sub Station Alpha Duration : 1 h 40 min Compression mode : Lossless Title : iTA NON UDENTI Language : Italian Default : No Forced : No Text #2 ID : 5 Format : ASS Codec ID : S_TEXT/ASS Codec ID/Info : Advanced Sub Station Alpha Duration : 1 h 41 min Compression mode : Lossless Title : ENG NON UDENTI Language : English Default : No Forced : No Menu 00:00:00.000 : :Capitolo 01 00:05:40.875 : :Capitolo 02 00:13:06.958 : :Capitolo 03 00:23:24.167 : :Capitolo 04 00:30:56.792 : :Capitolo 05 00:39:21.125 : :Capitolo 06 00:51:44.375 : :Capitolo 07 01:02:09.250 : :Capitolo 08 01:12:34.083 : :Capitolo 09 01:23:25.750 : :Capitolo 10 01:34:50.583 : :Capitolo 11 01:42:12.125 : :Capitolo 12 The.Current.War - Edison.L.Uomo.Che.Illumino.Il.Mondo.2017.iTA.EN...…
  • 인기 연관 검색어 :    The    ElizabethThe    slaythespire    ElizabethTheA0    TheWeak    thebar    They    Godmothered    더넌TheNu    Brother    
  • 관련 자료:    "Manos": The Hands of Fate (1966) RiffTrax triple audio 고화질 10b…    힛츠빌 Hitsville: The Making of Motown - 바다보아
  • 같은 시각 자료:    Raya.and.the.Last.Dragon.2021.초고화질.BrRip.x265.HEVCBay    Raya.and.the.Last.Dragon.2021.고화질.BrRip.x265.HEVCBay
무료 다운로드 링크 직접 다운로드 링크 무제한 다운로드 링크 초고속 다운로드 링크

The.Current.War - Edison.L.Uomo.Che.Illumino.Il.Mondo.2017.iTA.EN...

Jeddak-Presenta.png


Edison-L-Uomo-Che-Illumin-Il-Mondo.png


Titolo.png

Edison - LUomo Che Illuminò Il Mondo

Scheda.png

Titolo originale: The Current War
Genere: Biografico, Drammatico
Anno: 2017
Regia: Alfonso Gomez-Rejon
Attori: Benedict Cumberbatch, Katherine Waterston, Tom Holland, Nicholas Hoult, Michael Shannon, Tuppence Middleton, Matthew Macfadyen, Tom Bell, Ekow Quartey, Tom Sweet
Paese: USA
Durata: 105 min
Distribuzione: Unesclusiva per lItalia LEONE FILM GROUP - distribuito da 01 Distribution
Sceneggiatura: Michael Mitnick
Montaggio: David Trachtenberg
Musiche: Volker Bertelmann, Dustin OHalloran
Produzione: Bazelevs Production, Film Rites, Fourth Floor Productions

Trama.png

Edison - Luomo che Illuminò il Mondo è un film biografico del 2017 diretto da Alfonso Gomez-Rejon, con Benedict Cumberbatch, Micheal Shannon e Katherine Waterston.
Protagonista di questa storia è il geniale ed ambizioso inventore Thomas Alva Edison (Benedict Cumberbatch), che cambiò il mondo di fine 800 con la realizzazione della lampadina elettrica. Il successo dellinnovativa invenzione fece sì che Edison aprisse la sua prima centrale elettrica a New York, diventando così un imprenditore di fama mondiale, con il progetto di illuminare tutte le grandi metropoli.
Il piano mostra però le sue lacune, dovute allutilizzo della corrente elettrica continua, incapace di coprire grosse distanze; quando George Westinghouse (Michael Shannon), uomo daffari in possesso dei brevetti della corrente alternata, si propose ad Edison per collaborare e risolvere le imperfezioni, questi rifiutò, convinto di potercela fare da solo e dubbioso sulla sicurezza del metodo presentato dallimprenditore, capace sì di aumentare la tensione e la conseguente copertura di grandi distanze, ma anche pericoloso poiché potenzialmente letale in caso di contatto involontario e conseguente folgorazione. Si scatenò così una vera "guerra delle correnti" tra i due impresari, che iniziarono a competere per gli appalti di illuminazione delle grandi città americane, cercando di influenzare le scelte governative e lopinione pubblica.
Con Edison iniziò a collaborare anche Nikola Tesla (Nicolas Hoult), il visionario inventore, fisico ed ingegnere elettrico, che in breve tempo abbandonò la società per incomprensioni economiche, e finì, dopo un periodo in disgrazia, per essere assunto da Westington.
Con la morte della moglie, Edison però conobbe una svolta negativa, arrivando ad investire tutte le sue energie per screditare i metodi del rivale, senza farsi scrupoli sulla scorrettezza delle sue azioni, accecato solo dallambizione e dal desiderio di prevalere. Iniziò anche a collaborare segretamente con il governo al progetto della sedia elettrica, che nonostante egli affermasse essere un metodo sicuro ed indolore, si rivelò imperfetto nellesecuzione delluxoricida William Kemmler, il primo criminale giustiziato con la nuova invenzione, che però morì solo dopo ben tre scariche e indicibili sofferenze. La cattiva pubblicità che derivò dallavvenimento provocò una perdita di consenso nellopinione pubblica e lestromissione dal consiglio di amministrazione della sua società; Edison ebbe una finale resa dei conti con il suo antagonista in occasione della gara di appalto per lilluminazione della Fiera di Chicago del 1893, che tuttavia non gli impedì di concentrarsi anche su unaltra grandissima invenzione, il kinetoscopio, precursore del proiettore cinematografico, pronto a rivoluzionare ancora una volta il mondo.



Trailer.png



Screenshots.png













Dati-File.png

Jeddak-Presenta.png


Edison-L-Uomo-Che-Illumin-Il-Mondo.png


Titolo.png

Edison - LUomo Che Illuminò Il Mondo

Scheda.png

Titolo originale: The Current War
Genere: Biografico, Drammatico
Anno: 2017
Regia: Alfonso Gomez-Rejon
Attori: Benedict Cumberbatch, Katherine Waterston, Tom Holland, Nicholas Hoult, Michael Shannon, Tuppence Middleton, Matthew Macfadyen, Tom Bell, Ekow Quartey, Tom Sweet
Paese: USA
Durata: 105 min
Distribuzione: Unesclusiva per lItalia LEONE FILM GROUP - distribuito da 01 Distribution
Sceneggiatura: Michael Mitnick
Montaggio: David Trachtenberg
Musiche: Volker Bertelmann, Dustin OHalloran
Produzione: Bazelevs Production, Film Rites, Fourth Floor Productions

Trama.png

Edison - Luomo che Illuminò il Mondo è un film biografico del 2017 diretto da Alfonso Gomez-Rejon, con Benedict Cumberbatch, Micheal Shannon e Katherine Waterston.
Protagonista di questa storia è il geniale ed ambizioso inventore Thomas Alva Edison (Benedict Cumberbatch), che cambiò il mondo di fine 800 con la realizzazione della lampadina elettrica. Il successo dellinnovativa invenzione fece sì che Edison aprisse la sua prima centrale elettrica a New York, diventando così un imprenditore di fama mondiale, con il progetto di illuminare tutte le grandi metropoli.
Il piano mostra però le sue lacune, dovute allutilizzo della corrente elettrica continua, incapace di coprire grosse distanze; quando George Westinghouse (Michael Shannon), uomo daffari in possesso dei brevetti della corrente alternata, si propose ad Edison per collaborare e risolvere le imperfezioni, questi rifiutò, convinto di potercela fare da solo e dubbioso sulla sicurezza del metodo presentato dallimprenditore, capace sì di aumentare la tensione e la conseguente copertura di grandi distanze, ma anche pericoloso poiché potenzialmente letale in caso di contatto involontario e conseguente folgorazione. Si scatenò così una vera "guerra delle correnti" tra i due impresari, che iniziarono a competere per gli appalti di illuminazione delle grandi città americane, cercando di influenzare le scelte governative e lopinione pubblica.
Con Edison iniziò a collaborare anche Nikola Tesla (Nicolas Hoult), il visionario inventore, fisico ed ingegnere elettrico, che in breve tempo abbandonò la società per incomprensioni economiche, e finì, dopo un periodo in disgrazia, per essere assunto da Westington.
Con la morte della moglie, Edison però conobbe una svolta negativa, arrivando ad investire tutte le sue energie per screditare i metodi del rivale, senza farsi scrupoli sulla scorrettezza delle sue azioni, accecato solo dallambizione e dal desiderio di prevalere. Iniziò anche a collaborare segretamente con il governo al progetto della sedia elettrica, che nonostante egli affermasse essere un metodo sicuro ed indolore, si rivelò imperfetto nellesecuzione delluxoricida William Kemmler, il primo criminale giustiziato con la nuova invenzione, che però morì solo dopo ben tre scariche e indicibili sofferenze. La cattiva pubblicità che derivò dallavvenimento provocò una perdita di consenso nellopinione pubblica e lestromissione dal consiglio di amministrazione della sua società; Edison ebbe una finale resa dei conti con il suo antagonista in occasione della gara di appalto per lilluminazione della Fiera di Chicago del 1893, che tuttavia non gli impedì di concentrarsi anche su unaltra grandissima invenzione, il kinetoscopio, precursore del proiettore cinematografico, pronto a rivoluzionare ancora una volta il mondo.



Trailer.png



Screenshots.png













Dati-File.png

General
Unique ID : 208604046656962058775934235546311610604 (0x9CEFAD9141DA3DA083FF04B4C46E50EC)
Complete name : Edison.L.Uomo.Che.Illumino.Il.Mondo.2017.iTA.ENG.AC3.SUB.iTA.ENG.BluRay.초고화질.x264.jeddak-MIRCrew.mkv
Format : Matroska
Format version : Version 2
File size : 2.45 GiB
Duration : 1 h 48 min
Overall bit rate : 3 230 kb/s
Movie name : Edison.L.Uomo.Che.Illumino.Il.Mondo.2017.iTA.ENG.AC3.SUB.iTA.ENG.BluRay.초고화질.x264.jeddak-MIRCrew
Encoded date : UTC 2021-04-06 10:03:15
Writing application : mkvmerge v5.6.0 (Kenya Kane) built on May 27 2012 16:44:04
Writing library : libebml v1.2.3 + libmatroska v1.3.0 / Lavf58.29.100

Video
ID : 1
Format : AVC
Format/Info : Advanced Video Codec
Format profile : [email protected]
Format settings : CABAC / 4 Ref Frames
Format settings, CABAC : Yes
Format settings, Reference : 4 frames
Codec ID : V_MPEG4/ISO/AVC
Duration : 1 h 48 min
Bit rate : 2 270 kb/s
Nominal bit rate : 2 400 kb/s
Width : 1 920 pixels
Height : 800 pixels
Display aspect ratio : 2.40:1
Frame rate mode : Constant
Frame rate : 24.000 FPS
Color space : YUV
Chroma subsampling : 4:2:0
Bit depth : 8 bits
Scan type : Progressive
Bits/(Pixel*Frame) : 0.062
Stream size : 1.72 GiB (70%)
Title : ...::: jeddak MIRCrew :::...
Writing library : x264 core 148
Encoding settings : cabac=1 / ref=3 / deblock=1:-1:-1 / analyse=0x3:0x113 / me=hex / subme=7 / psy=1 / psy_rd=1.00:0.15 / mixed_ref=1 / me_range=16 / chroma_me=1 / trellis=1 / 8x8dct=1 / cqm=0 / deadzone=21,11 / fast_pskip=1 / chroma_qp_offset=-3 / threads=6 / lookahead_threads=1 / sliced_threads=0 / nr=0 / decimate=1 / interlaced=0 / bluray_compat=0 / constrained_intra=0 / bframes=3 / b_pyramid=2 / b_adapt=1 / b_bias=0 / direct=1 / weightb=1 / open_gop=0 / weightp=2 / keyint=240 / keyint_min=24 / scenecut=40 / intra_refresh=0 / rc_lookahead=40 / rc=abr / mbtree=1 / bitrate=2400 / ratetol=1.0 / qcomp=0.60 / qpmin=0 / qpmax=69 / qpstep=4 / vbv_maxrate=62500 / vbv_bufsize=78125 / nal_hrd=none / filler=0 / ip_ratio=1.40 / aq=1:1.00
Default : Yes
Forced : No
Color range : Limited
Color primaries : BT.709
Transfer characteristics : BT.709
Matrix coefficients : BT.709

Audio #1
ID : 2
Format : AC-3
Format/Info : Audio Coding 3
Commercial name : Dolby Digital
Codec ID : A_AC3
Duration : 1 h 48 min
Bit rate mode : Constant
Bit rate : 448 kb/s
Channel(s) : 6 channels
Channel layout : L R C LFE Ls Rs
Sampling rate : 48.0 kHz
Frame rate : 31.250 FPS (1536 SPF)
Compression mode : Lossy
Delay relative to video : -5 ms
Stream size : 348 MiB (14%)
Title : iTA AC3 5.1
Language : Italian
Service kind : Complete Main
Default : Yes
Forced : No

Audio #2
ID : 3
Format : AC-3
Format/Info : Audio Coding 3
Commercial name : Dolby Digital
Codec ID : A_AC3
Duration : 1 h 48 min
Bit rate mode : Constant
Bit rate : 448 kb/s
Channel(s) : 6 channels
Channel layout : L R C LFE Ls Rs
Sampling rate : 48.0 kHz
Frame rate : 31.250 FPS (1536 SPF)
Compression mode : Lossy
Delay relative to video : -5 ms
Stream size : 348 MiB (14%)
Title : ENG AC3 5.1
Language : English
Service kind : Complete Main
Default : No
Forced : No

Text #1
ID : 4
Format : ASS
Codec ID : S_TEXT/ASS
Codec ID/Info : Advanced Sub Station Alpha
Duration : 1 h 40 min
Compression mode : Lossless
Title : iTA NON UDENTI
Language : Italian
Default : No
Forced : No

Text #2
ID : 5
Format : ASS
Codec ID : S_TEXT/ASS
Codec ID/Info : Advanced Sub Station Alpha
Duration : 1 h 41 min
Compression mode : Lossless
Title : ENG NON UDENTI
Language : English
Default : No
Forced : No

Menu
00:00:00.000 : :Capitolo 01
00:05:40.875 : :Capitolo 02
00:13:06.958 : :Capitolo 03
00:23:24.167 : :Capitolo 04
00:30:56.792 : :Capitolo 05
00:39:21.125 : :Capitolo 06
00:51:44.375 : :Capitolo 07
01:02:09.250 : :Capitolo 08
01:12:34.083 : :Capitolo 09
01:23:25.750 : :Capitolo 10
01:34:50.583 : :Capitolo 11
01:42:12.125 : :Capitolo 12

The.Current.War - Edison.L.Uomo.Che.Illumino.Il.Mondo.2017.iTA.EN...
번역하기: 한국 한국어


<< 이 게시판에서 관련된 자료 목록 >>
 [구글검색] 구글에서 바다보아 검색 - 구글에서 토렌트를 검색하실 때에 검색어 뒤에 바다보아를 꼭 붙여서 검색하세요.     바다보아에서 광고중인 웹에 문제가 있다면 상단에 나와 있는 운영자 이메일로 연락 주십시오.     사용자님의 다운로드가 완료될 때까지 저희가 함께하겠습니다. 편안하고 즐거운 시간 되십시오.

웹하드 찐플

  

  

IMFORMATION STORE

상단으로 가운데로 하단으로