website statistics
Promising Young Woman (2020) [BluRay 초고화질 10bit DDP7.1 x265] > 영화 > 대한민국 No.1 바다보아

팝업레이어 알림

 [구글검색] 구글에서 바다보아 검색 - 구글에서 토렌트를 검색하실 때에 검색어 뒤에 바다보아를 꼭 붙여서 검색하세요.     바다보아에서 광고중인 웹에 문제가 있다면 상단에 나와 있는 운영자 이메일로 연락 주십시오.     사용자님의 다운로드가 완료될 때까지 저희가 함께하겠습니다. 편안하고 즐거운 시간 되십시오.

웹하드 파일썬

  

  
Promising Young Woman (2020) [BluRay 초고화질 10bit DDP7.1 x265]
  • 파일 설명:     PLEASE SEED FOR AS LONG AS YOU CAN TO BALANCE THE SEEDER:LEECHER RATIO. SCREENSHOTS: Code:MEDIAINFO: General Format : Matroska Format version : Version 4 File size : 1.32 GiB Duration : 1 h 53 min Overall bit rate : 1 661 kb/s Movie name : Promising Young Woman (2020) [BluRay 초고화질 10bit DDP5.1 x265] - Encoded by Thakur Attachments : Promising Young Woman (2020).jpg Video ID : 1 Format : HEVC Format/Info : High Efficiency Video Coding Format profile : Main [email protected]@High Codec ID : V_MPEGH/ISO/HEVC Duration : 1 h 53 min Bit rate : 1 186 kb/s Width : 1 920 pixels Height : 800 pixels Display aspect ratio : 2.40:1 Frame rate mode : Constant Frame rate : 23.976 (24000/1001) FPS Color space : YUV Chroma subsampling : 4:2:0 Bit depth : 10 bits Bits/(Pixel*Frame) : 0.032 Stream size : 962 MiB (71%) Title : Encoded by Thakur Writing library : x265 3.2+5-gfbe9fef31:[Windows][GCC 9.2.0][64 bit] 10bit Encoding settings : cpuid=1111039 / frame-threads=5 / numa-pools=24 / wpp / no-pmode / no-pme / no-psnr / no-ssim / log-level=2 / input-csp=1 / input-res=1920x800 / interlace=0 / total-frames=163236 / level-idc=40 / high-tier=1 / uhd-bd=0 / ref=3 / no-allow-non-conformance / repeat-headers / annexb / aud / hrd / info / hash=0 / no-temporal-layers / no-open-gop / min-keyint=24 / keyint=240 / gop-lookahead=0 / bframes=4 / b-adapt=2 / b-pyramid / bframe-bias=0 / rc-lookahead=25 / lookahead-slices=4 / scenecut=40 / radl=0 / no-splice / no-intra-refresh / ctu=64 / min-cu-size=8 / no-rect / no-amp / max-tu-size=32 / tu-inter-depth=1 / tu-intra-depth=1 / limit-tu=0 / rdoq-level=2 / dynamic-rd=0.00 / no-ssim-rd / signhide / no-tskip / nr-intra=0 / nr-inter=0 / no-constrained-intra / no-strong-intra-smoothing / max-merge=3 / limit-refs=1 / limit-modes / me=2 / subme=3 / merange=57 / temporal-mvp / no-hme / weightp / no-weightb / no-analyze-src-pics / deblock=-3:-3 / no-sao / no-sao-non-deblock / rd=4 / selective-sao=0 / early-skip / rskip / no-fast-intra / no-tskip-fast / no-cu-lossless / b-intra / no-splitrd-skip / rdpenalty=0 / psy-rd=2.00 / psy-rdoq=0.00 / no-rd-refine / no-lossless / cbqpoffs=0 / crqpoffs=0 / rc=crf / crf=22.7 / qcomp=0.60 / qpstep=4 / stats-write=0 / stats-read=0 / vbv-maxrate=18000 / vbv-bufsize=17500 / vbv-init=0.9 / crf-max=0.0 / crf-min=0.0 / ipratio=1.40 / pbratio=1.30 / aq-mode=3 / aq-strength=0.85 / cutree / zone-count=0 / no-strict-cbr / qg-size=32 / no-rc-grain / qpmax=69 / qpmin=0 / no-const-vbv / sar=0 / overscan=0 / videoformat=5 / range=0 / colorprim=1 / transfer=2 / colormatrix=1 / chromaloc=0 / display-window=0 / cll=0,0 / min-luma=0 / max-luma=1023 / log2-max-poc-lsb=8 / vui-timing-info / vui-hrd-info / slices=1 / no-opt-qp-pps / no-opt-ref-list-length-pps / no-multi-pass-opt-rps / scenecut-bias=0.05 / no-opt-cu-delta-qp / no-aq-motion / no-hdr / no-hdr-opt / no-dhdr10-opt / no-idr-recovery-sei / analysis-reuse-level=5 / scale-factor=0 / refine-intra=0 / refine-inter=0 / refine-mv=1 / refine-ctu-distortion=0 / no-limit-sao / ctu-info=0 / no-lowpass-dct / refine-analysis-type=0 / copy-pic=1 / max-ausize-factor=1.0 / no-dynamic-refine / no-single-sei / no-hevc-aq / no-svt / no-field / qp-adaptation-range=1.00 Default : Yes Forced : No Color range : Limited Color primaries : BT.709 Matrix coefficients : BT.709 Audio ID : 2 Format : E-AC-3 Format/Info : Enhanced AC-3 Commercial name : Dolby Digital Plus Codec ID : A_EAC3 Duration : 1 h 53 min Bit rate mode : Constant Bit rate : 448 kb/s Channel(s) : 8 channels Channel layout : L R C LFE Ls Rs Lb Rb Sampling rate : 48.0 kHz Frame rate : 31.250 FPS (1536 SPF) Compression mode : Lossy Stream size : 364 MiB (27%) Title : Dolby Digital Plus 7.1 448kbps - Encoded by Thakur Language : English Service kind : Complete Main Default : No Forced : No Text #1 ID : 3 Format : PGS Muxing mode : zlib Codec ID : S_HDMV/PGS Codec ID/Info : Picture based subtitle format used on BDs/HD-DVDs Duration : 1 h 48 min Bit rate : 51.2 kb/s Count of elements : 3748 Stream size : 39.7 MiB (3%) Title : PGS [SDH] Language : English Default : No Forced : No Text #2 ID : 4 Format : UTF-8 Codec ID : S_TEXT/UTF8 Codec ID/Info : UTF-8 Plain Text Duration : 1 h 48 min Bit rate : 70 b/s Count of elements : 1738 Stream size : 56.4 KiB (0%) Title : SRT Language : English Default : Yes Forced : No Promising Young Woman (2020) [BluRay 초고화질 10bit DDP7.1 x265]…
  • 인기 연관 검색어 :    
  • 관련 자료:    Promising Young Woman (2020) (초고화질 BluRay x265 HEVC 10bit AAC 7    프라미싱 영 우먼 Promising Young Woman 2021 초고화질 KOR FHDRip H264 AAC-J…
  • 같은 시각 자료:    Fried.Barry.2020.HDRip.XviD.B4ND1T69    2O21.O5월 (코로Lr 19)[: 코 ㅂl 드 23 :]변종바이러스.FHD.1O8Op.한..
무료 다운로드 링크 직접 다운로드 링크 무제한 다운로드 링크 초고속 다운로드 링크

Promising Young Woman (2020) [BluRay 초고화질 10bit DDP7.1 x265]

vlcsnap-2021-05-09-00h05m35s303-210509121104.jpg

vlcsnap-2021-05-09-00h06m28s667-210509121112.jpg

vlcsnap-2021-05-09-00h06m36s545-210509121117.jpg

vlcsnap-2021-05-09-00h07m10s386-210509121121.jpg

vlcsnap-2021-05-09-00h07m38s876-210509121125.jpg

vlcsnap-2021-05-09-00h07m47s584-210509121130.jpg

vlcsnap-2021-05-09-00h07m58s404-210509121134.jpg

vlcsnap-2021-05-09-00h08m14s297-210509121138.jpg

vlcsnap-2021-05-09-00h08m22s826-210509121142.jpg

PLEASE SEED FOR AS LONG AS YOU CAN TO BALANCE THE SEEDER:LEECHER RATIO.


SCREENSHOTS:
vlcsnap-2021-05-09-00h05m35s303-210509121104.jpg

vlcsnap-2021-05-09-00h06m28s667-210509121112.jpg

vlcsnap-2021-05-09-00h06m36s545-210509121117.jpg

vlcsnap-2021-05-09-00h07m10s386-210509121121.jpg

vlcsnap-2021-05-09-00h07m38s876-210509121125.jpg

vlcsnap-2021-05-09-00h07m47s584-210509121130.jpg

vlcsnap-2021-05-09-00h07m58s404-210509121134.jpg

vlcsnap-2021-05-09-00h08m14s297-210509121138.jpg

vlcsnap-2021-05-09-00h08m22s826-210509121142.jpg

Code:

MEDIAINFO:
General
Format : Matroska
Format version : Version 4
File size : 1.32 GiB
Duration : 1 h 53 min
Overall bit rate : 1 661 kb/s
Movie name : Promising Young Woman (2020) [BluRay 초고화질 10bit DDP5.1 x265] - Encoded by Thakur
Attachments : Promising Young Woman (2020).jpg

Video
ID : 1
Format : HEVC
Format/Info : High Efficiency Video Coding
Format profile : Main [email protected]@High
Codec ID : V_MPEGH/ISO/HEVC
Duration : 1 h 53 min
Bit rate : 1 186 kb/s
Width : 1 920 pixels
Height : 800 pixels
Display aspect ratio : 2.40:1
Frame rate mode : Constant
Frame rate : 23.976 (24000/1001) FPS
Color space : YUV
Chroma subsampling : 4:2:0
Bit depth : 10 bits
Bits/(Pixel*Frame) : 0.032
Stream size : 962 MiB (71%)
Title : Encoded by Thakur
Writing library : x265 3.2+5-gfbe9fef31:[Windows][GCC 9.2.0][64 bit] 10bit
Encoding settings : cpuid=1111039 / frame-threads=5 / numa-pools=24 / wpp / no-pmode / no-pme / no-psnr / no-ssim / log-level=2 / input-csp=1 / input-res=1920x800 / interlace=0 / total-frames=163236 / level-idc=40 / high-tier=1 / uhd-bd=0 / ref=3 / no-allow-non-conformance / repeat-headers / annexb / aud / hrd / info / hash=0 / no-temporal-layers / no-open-gop / min-keyint=24 / keyint=240 / gop-lookahead=0 / bframes=4 / b-adapt=2 / b-pyramid / bframe-bias=0 / rc-lookahead=25 / lookahead-slices=4 / scenecut=40 / radl=0 / no-splice / no-intra-refresh / ctu=64 / min-cu-size=8 / no-rect / no-amp / max-tu-size=32 / tu-inter-depth=1 / tu-intra-depth=1 / limit-tu=0 / rdoq-level=2 / dynamic-rd=0.00 / no-ssim-rd / signhide / no-tskip / nr-intra=0 / nr-inter=0 / no-constrained-intra / no-strong-intra-smoothing / max-merge=3 / limit-refs=1 / limit-modes / me=2 / subme=3 / merange=57 / temporal-mvp / no-hme / weightp / no-weightb / no-analyze-src-pics / deblock=-3:-3 / no-sao / no-sao-non-deblock / rd=4 / selective-sao=0 / early-skip / rskip / no-fast-intra / no-tskip-fast / no-cu-lossless / b-intra / no-splitrd-skip / rdpenalty=0 / psy-rd=2.00 / psy-rdoq=0.00 / no-rd-refine / no-lossless / cbqpoffs=0 / crqpoffs=0 / rc=crf / crf=22.7 / qcomp=0.60 / qpstep=4 / stats-write=0 / stats-read=0 / vbv-maxrate=18000 / vbv-bufsize=17500 / vbv-init=0.9 / crf-max=0.0 / crf-min=0.0 / ipratio=1.40 / pbratio=1.30 / aq-mode=3 / aq-strength=0.85 / cutree / zone-count=0 / no-strict-cbr / qg-size=32 / no-rc-grain / qpmax=69 / qpmin=0 / no-const-vbv / sar=0 / overscan=0 / videoformat=5 / range=0 / colorprim=1 / transfer=2 / colormatrix=1 / chromaloc=0 / display-window=0 / cll=0,0 / min-luma=0 / max-luma=1023 / log2-max-poc-lsb=8 / vui-timing-info / vui-hrd-info / slices=1 / no-opt-qp-pps / no-opt-ref-list-length-pps / no-multi-pass-opt-rps / scenecut-bias=0.05 / no-opt-cu-delta-qp / no-aq-motion / no-hdr / no-hdr-opt / no-dhdr10-opt / no-idr-recovery-sei / analysis-reuse-level=5 / scale-factor=0 / refine-intra=0 / refine-inter=0 / refine-mv=1 / refine-ctu-distortion=0 / no-limit-sao / ctu-info=0 / no-lowpass-dct / refine-analysis-type=0 / copy-pic=1 / max-ausize-factor=1.0 / no-dynamic-refine / no-single-sei / no-hevc-aq / no-svt / no-field / qp-adaptation-range=1.00
Default : Yes
Forced : No
Color range : Limited
Color primaries : BT.709
Matrix coefficients : BT.709

Audio
ID : 2
Format : E-AC-3
Format/Info : Enhanced AC-3
Commercial name : Dolby Digital Plus
Codec ID : A_EAC3
Duration : 1 h 53 min
Bit rate mode : Constant
Bit rate : 448 kb/s
Channel(s) : 8 channels
Channel layout : L R C LFE Ls Rs Lb Rb
Sampling rate : 48.0 kHz
Frame rate : 31.250 FPS (1536 SPF)
Compression mode : Lossy
Stream size : 364 MiB (27%)
Title : Dolby Digital Plus 7.1 448kbps - Encoded by Thakur
Language : English
Service kind : Complete Main
Default : No
Forced : No

Text #1
ID : 3
Format : PGS
Muxing mode : zlib
Codec ID : S_HDMV/PGS
Codec ID/Info : Picture based subtitle format used on BDs/HD-DVDs
Duration : 1 h 48 min
Bit rate : 51.2 kb/s
Count of elements : 3748
Stream size : 39.7 MiB (3%)
Title : PGS [SDH]
Language : English
Default : No
Forced : No

Text #2
ID : 4
Format : UTF-8
Codec ID : S_TEXT/UTF8
Codec ID/Info : UTF-8 Plain Text
Duration : 1 h 48 min
Bit rate : 70 b/s
Count of elements : 1738
Stream size : 56.4 KiB (0%)
Title : SRT
Language : English
Default : Yes
Forced : No


Promising Young Woman (2020) [BluRay 초고화질 10bit DDP7.1 x265]
번역하기: 한국 한국어


<< 이 게시판에서 관련된 자료 목록 >>
 [구글검색] 구글에서 바다보아 검색 - 구글에서 토렌트를 검색하실 때에 검색어 뒤에 바다보아를 꼭 붙여서 검색하세요.     바다보아에서 광고중인 웹에 문제가 있다면 상단에 나와 있는 운영자 이메일로 연락 주십시오.     사용자님의 다운로드가 완료될 때까지 저희가 함께하겠습니다. 편안하고 즐거운 시간 되십시오.

웹하드 파일마루

  

  

IMFORMATION STORE

상단으로 가운데로 하단으로